#TITLE:Laser Cannon Deth Sentence;
#SUBTITLE:by young editer;
#ARTIST:Dethklok;
#TITLETRANSLIT:;
#SUBTITLETRANSLIT:;
#ARTISTTRANSLIT:Dethklok;
#GENRE:;
#CREDIT:;
#BANNER:106461_logo-bn.jpg;
#BACKGROUND:Dethklok_lives_by_RayStantz-bg.jpg;
#LYRICSPATH:;
#CDTITLE:Nepex-Chart.bmp;
#MUSIC:04 Laser Cannon Deth Sentence.mp3;
#OFFSET:-4.974;
#SAMPLESTART:99.920;
#SAMPLELENGTH:12.000;
#SELECTABLE:YES;
#BPMS:0.000=40.000,1.000=160.000,193.000=80.000,196.000=160.000,198.000=80.000,201.000=160.000,235.000=80.000,251.000=160.000,608.000=159.900,658.000=40.000;
#STOPS:353.000=0.375
;
#BGCHANGES:;
#KEYSOUNDS:;

//---------------dance-single - Blank----------------
#NOTES:
     dance-single:
     Blank:
     Hard:
     13:
     1.000,1.000,1.000,0.790,1.000:




0000
0000
0000
0000
0000
0000
0001
0100
0010
1000
0010
0100
0001
0100
0010
1000
0100
0010
0001
0100
0010
0100
0010
1000
,
0100
1000
0100
1000
0010
0100
0010
1000
0010
0100
0001
0010
0100
1000
0010
0100
0010
0001
0010
0100
0010
0001
0010
0100
,
0001
0010
0100
0010
0001
0010
0100
0010
0001
0010
1000
0010
0100
0010
0001
0100
0010
1000
0010
0100
0010
1000
0100
1000
,
0001
0100
0001
0010
0001
0100
0010
1000
0010
0100
0010
1000
0100
1000
0001
0100
0001
0100
0001
0010
0001
0100
0010
0001
,
0010
1000
0010
0100
0001
0100
1000
0100
0001
0100
0010
0001
0010
1000
0010
0100
0001
0010
0100
1000
0100
0001
0100
0010
,
0001
0100
0010
0001
0010
1000
0010
0100
0010
1000
0100
1000
0001
0100
0001
0010
0001
0100
0010
0001
0010
0100
0010
1000
,
0010
0100
0010
1000
0100
1000
0100
1000
0001
0100
0001
0010
0100
0010
0001
0100
0010
0001
0010
0100
0010
1000
0010
0100
,
0001
0100
0001
0010
0100
1000
0100
0010
0100
1000
0010
0100
0001
0100
0001
0010
0100
0010
0001
1000
0100
1000
0001
0100
,
0010
0001
0010
1000
0010
0100
0001
0010
0100
1000
0100
0001
0100
0010
0001
1000
0001
0100
0001
0010
0100
1000
0100
0010
,
0100
0010
0001
0100
0010
0001
0010
0100
0010
1000
0010
0100
0001
0010
0100
0010
0100
0010
0001
0100
0010
1000
0010
0100
,
0001
0010
0100
1000
0100
0001
0100
1000
0100
0001
0100
1000
0010
0100
1000
0100
0010
0100
1000
0100
0010
1000
0010
0100
,
0010
1000
0100
0001
0100
0010
0001
0100
0001
0010
0001
0100
0010
0100
0010
1000
0100
1000
0001
0100
0001
0010
0001
0100
,
0010
0100
0010
1000
0100
1000
0010
0100
0010
1000
0100
1000
0001
0100
0010
0001
0010
0100
1000
0100
0010
0001
0010
0100
,
0001
0010
0100
1000
0100
0010
0001
1000
0100
0010
0001
0010
0100
1000
0010
0100
0010
1000
0001
0100
0001
0010
0001
1000
,
0100
1000
0010
0100
0010
1000
0001
0100
0001
0010
0100
0010
0001
1000
0100
1000
0010
0100
0001
0010
0100
0010
0001
1000
,
0001
0100
0001
0010
0001
1000
0100
1000
0010
1000
0001
1000
0001
1000
0010
0100
0010
1000
0001
0100
0010
0001
0010
1000
,
0220
0000
0000
0000
0000
0000
0330
0000
0000
0000
0000
0000
2022
0000
0000
3033
0110
0000
0000
0000
1010
0000
0000
0000
0101
0000
0000
0000
0011
0000
0000
0000
1001
0000
0000
0000
2220
0000
3330
0000
1010
0000
0000
0000
1001
0000
0000
0000
,
0101
0000
0000
0000
0011
0000
0000
0000
1001
0000
0000
0000
0222
0000
0000
0333
0110
0000
0000
0000
1010
0000
0000
0000
0101
0000
0000
0000
0011
0000
0000
0000
1001
0000
0000
0000
2202
0000
3303
0000
1010
0000
0000
0000
0110
0000
0000
0000
,
1010
0000
0101
0000
1100
0000
0222
0333
1100
0000
1001
0000
0101
0000
0011
0000
1001
0000
2220
3330
0011
0000
0101
0000
,
1010
0000
0110
0000
0101
0000
2022
3033
1100
0000
1010
0000
0110
0000
1001
0000
0110
0000
2202
3303
0110
0000
0101
0000
,
0011
0000
1001
0000
1100
0000
0222
0333
1001
0000
1100
0000
1010
0000
0101
0000
0011
0000
2220
3330
1001
0000
1100
0000
,
1010
0000
0101
0000
0110
0000
2202
3303
0011
0000
0110
0000
1010
0000
0101
0000
1100
0000
0222
0333
1100
0000
0110
0000
,
1010
0000
0101
0000
0110
0000
2022
3033
1100
0000
0101
0000
0011
0000
1001
0000
1010
0000
2220
3330
0101
0000
1010
0000
,
1001
0000
1100
0000
1010
0000
0222
0333
1010
0000
0101
0000
1100
0000
0001
0000
0010
0000
1001
0000
0100
0000
0010
0000
,
0101
0000
1000
0000
0100
0000
0011
0100
0010
0100
0001
0100
0010
1000
0001
0100
0001
0010
0100
0010
0001
1000
0100
1000
,
0010
0100
0010
1000
0010
0100
0001
0010
0001
0100
0010
0100
0010
1000
0010
0100
0001
0100
0001
0010
0001
0100
0010
0100
,
0010
1000
0100
1000
0001
0100
0001
0010
0001
0100
0010
0100
0010
1000
0100
1000
0001
0100
0010
1000
0010
0100
0010
1000
,
0100
0010
0100
1000
0010
0100
1000
0100
0010
1000
0010
0100
0001
0100
0001
0010
0001
0100
0001
1000
0100
1000
0010
0100
,
0010
1000
0100
0001
0100
0010
0001
0100
0010
0001
0010
1000
0010
0100
0001
0100
0010
1000
0010
0100
0001
0100
0010
0001
,
0010
1000
0010
0100
0001
0010
0100
0010
0001
1000
0100
0010
0001
0010
0001
0100
0010
0001
0010
0100
0010
0100
0010
1000
,
0010
1000
0010
0100
0001
0100
0001
0010
0001
0100
0010
0001
0010
1000
0100
1000
0001
0100
0001
0010
0001
0100
0010
1000
,
0100
1000
0001
0100
0001
0010
0001
0100
0010
0001
0010
1000
0100
0010
0100
1000
0010
0100
0010
0100
0010
1000
0010
0100
,
0001
0010
0100
0010
0001
0100
0010
0001
0010
1000
0010
0100
1000
0100
0010
0100
1000
0100
0010
1000
0010
0100
0010
1000
,
0100
0001
0100
0010
0001
0100
0010
0001
0010
1000
0010
0100
0001
0100
0001
0010
0100
0010
0001
0100
0001
1000
0100
1000
,
0010
0100
0010
1000
0001
0100
0001
0100
0010
0001
0010
1000
0010
0100
0001
0100
0001
0010
0100
1000
0100
0010
0100
1000
,
0010
0100
0010
1000
0100
0010
0001
0010
0100
1000
0001
0010
0100
1000
0100
0010
0001
1000
0100
0010
0001
0100
0010
0001
,
0010
1000
0010
0100
0001
0100
0001
1000
0100
1000
0010
0100
0010
1000
0001
0100
0010
1000
0100
0010
0001
0010
1000
0010
,
0001
0100
0001
1000
0100
1000
0010
0100
0010
1000
0001
0100
0001
0010
0001
1000
0010
0100
0010
0100
0001
0010
0001
0100
,
0001
0010
0001
0100
0010
1000
0010
0100
0010
1000
0001
0100
0010
0001
0010
0100
0010
1000
0100
1000
0001
0100
0001
0010
,
0001
0100
0010
1000
0100
1000
0001
0100
0001
0010
0001
1000
0100
1000
0010
0100
0010
1000
0100
0010
0001
0100
0010
0100
,
2020
0000
0000
3030
0000
0000
1100
0000
0101
0000
1010
0000
0101
0000
1001
0000
1100
0000
0110
0000
1001
0000
0101
0000
,
0011
0000
1010
0000
0110
0000
1010
0001
0100
0001
1000
0100
1000
0010
0100
0010
1000
0010
0100
0001
0010
0100
0010
0100
,
1001
0100
0010
1001
1010
0101
1001
1100
0110
1010
0101
0011
,
1001
0000
1010
0000
0110
0000
0010
0100
0001
0010
0100
0010
0001
0100
0010
1000
0010
0100
0001
1000
0100
0010
0001
0100
,
2020
0000
0000
0000
0000
0000
0000
0000
0000
3030
0000
0000
0101
0000
0000
0000
1010
0000
0000
0000
1001
0000
0000
0000
1100
0000
0000
0000
0101
0000
0000
0000
0011
0000
0000
0000
1001
0000
0000
0000
1100
0000
0000
0000
0110
0000
0000
0000
,
1001
0000
1010
0000
0101
0000
1010
0001
0100
0001
0010
0001
1000
0100
1000
0010
0100
0010
1000
0100
1000
0010
0100
0010
,
1000
0001
0100
0010
0000
0000
1001
0000
1100
0000
0101
0000
0011
0000
1001
0000
0110
0000
1010
0000
0101
0000
0011
0000
,
1001
1100
0110
1000
0100
0010
0001
1000
0100
0001
0010
0100
,
1000
0000
0000
0000
0001
0000
0000
0000
0010
0000
0000
0000
0100
0000
0010
0000
0001
0010
2000
0000
0000
0000
3000
0000
0010
0000
0001
0000
1000
0010
0200
0000
0000
0000
0300
0000
1000
0000
0010
0000
1000
0001
0020
0000
0000
0000
0030
0000
,
1001
0000
0000
0000
0101
0000
0000
0000
0110
0000
0000
0000
1001
0000
0000
0000
1100
0000
0000
0000
1010
0000
0000
0000
0111
0000
1000
0000
0001
0100
0020
0000
0000
0000
0030
0000
0100
0000
0001
0000
1000
0100
0002
0000
0000
0000
0003
0000
,
0010
0000
1000
0000
0010
0001
0200
0000
0000
0000
0300
0000
1001
0000
0000
0000
0110
0000
0000
0000
1100
0000
0000
0000
0011
0000
0000
0000
1010
0000
0000
0000
0101
0000
0000
0000
0111
0000
0000
0000
1000
0000
0000
0000
0100
0000
1000
0000
,
0020
0000
0130
0000
0010
0000
0100
0000
0001
0000
1000
0001
0200
0000
0310
0000
0100
0000
0001
0000
0100
0000
1000
0100
,
0020
0000
0130
0000
0010
0000
1001
0000
0110
0000
1100
0000
0011
0000
0101
0000
0110
0000
1101
0000
0010
0000
1000
0001
,
0200
0000
0301
0000
0100
0000
0010
0000
0100
0000
0001
0010
0200
0000
0310
0000
0001
0000
0100
0000
0010
0000
1000
0100
,
0002
0000
0103
0000
0010
0000
1001
0000
0110
0000
1010
0000
1001
0000
1100
0000
0011
0000
1110
0000
0001
0000
0100
1000
,
0020
0000
1030
0000
0010
0000
0100
0000
0001
0000
1000
0001
0200
0000
0301
0000
0100
0000
0001
0000
0010
0000
0001
0100
,
0020
0000
1030
0000
0100
0000
1001
0000
0110
0000
0101
0000
1100
0000
0110
0000
0011
0000
1101
0000
0010
0000
0001
0100
,
0020
0000
1030
0000
0010
0000
0100
0000
0001
0000
0100
0010
2000
0000
3010
0000
0100
0000
0001
0000
0100
0000
1000
0100
,
0020
0000
0000
0000
0130
0000
0000
0000
0010
0000
0000
0000
1100
0000
0000
0000
0110
0000
0000
0000
1001
0000
0000
0000
0110
0000
0000
0000
1010
0000
0000
0000
0101
0000
0000
0000
0222
0000
0000
0333
0000
0000
2220
0000
0000
3330
0000
0000
,
2202
3303
2220
3330
0222
0333
2202
3303
2022
3033
2220
3330
0222
0333
2202
3303
,
2022
0000
0000
3033
0000
0000
0222
0000
0000
0333
0000
0000
2220
0000
0000
3330
0000
0000
0111
0000
1000
0010
0100
0000
0001
0000
0010
0001
0100
0000
0010
0000
0100
0000
0001
0000
1110
0000
0000
0000
0000
0000
0111
0000
0000
0000
0000
0000
,
1110
0001
0100
1011
0000
0000
0111
0000
0000
1101
0000
0000
0111
1000
0010
1101
0010
1000
0111
0000
0000
1110
0000
0000
,
1011
0000
0100
0000
0001
0000
1110
0000
0000
0000
0000
0000
1011
0000
0010
1000
0100
0000
0010
0000
0001
0100
0010
0000
1000
0000
0010
0100
0001
0000
1001
0000
0110
0000
0011
0000
1100
0000
0000
0000
0001
0000
0000
0000
0100
0000
1000
0000
,
0020
0000
0130
0000
0010
0000
0100
0000
0001
0000
1000
0001
0200
0000
0310
0000
0100
0000
0001
0000
0100
0000
1000
0100
,
0020
0000
0130
0000
0010
0000
1001
0000
0110
0000
1100
0000
0011
0000
0101
0000
0110
0000
1101
0000
0010
0000
1000
0001
,
0200
0000
0301
0000
0100
0000
0010
0000
0100
0000
0001
0010
0200
0000
0310
0000
0001
0000
0100
0000
0010
0000
1000
0100
,
0002
0000
0103
0000
0010
0000
1001
0000
0110
0000
1010
0000
1001
0000
1100
0000
0011
0000
1110
0000
0001
0000
0100
1000
,
0020
0000
1030
0000
0010
0000
0100
0000
0001
0000
1000
0001
0200
0000
0301
0000
0100
0000
0001
0000
0010
0000
0001
0100
,
0020
0000
1030
0000
0100
0000
1001
0000
0110
0000
0101
0000
1100
0000
0110
0000
0011
0000
1101
0000
0010
0000
0001
0100
,
0020
0000
1030
0000
0010
0000
0100
0000
0001
0000
0100
0010
2000
0000
3010
0000
0100
0000
0001
0000
1000
0001
1000
0100
,
0020
0000
0130
0000
0010
0000
1100
0000
0110
0000
1001
0000
0110
0000
1010
0000
0101
0000
2220
3330
0001
0000
0100
0000
,
0010
1000
0100
1001
0100
0010
0001
1000
0100
0010
1000
0010
,
0100
0000
0001
0000
0010
0000
1100
0000
0010
0000
0001
0000
0100
0000
0010
0000
1000
0000
2022
3033
0100
0000
0001
0000
,
0100
1000
0100
0011
0100
0010
1000
0010
0100
0001
0100
1000
,
0100
0000
0010
0000
1000
0000
0011
0000
0100
0000
0001
0000
0100
0000
0010
0000
0001
0000
0222
0333
1000
0000
0100
0000
,
0001
0100
0010
1001
0010
1000
0010
0001
0100
0010
0001
0010
,
1000
0000
0100
0000
0001
0000
0110
0000
1000
0000
0010
0000
0100
0000
1000
0000
0100
0000
2220
3330
1000
0000
0010
0000
,
0100
1000
0100
0011
1000
0010
0100
0001
0010
0100
0010
0001
,
0100
0000
0010
0000
0001
0000
1010
0000
0100
0000
0001
0000
0100
0000
0010
0000
0001
0000
2022
3033
0100
0000
0001
0000
,
1000
0100
1000
0011
0100
0001
0010
0001
1000
0100
1000
0010
,
0100
0000
0010
0000
1000
0000
0101
0000
0010
0000
0001
0000
1000
0000
0100
0000
0010
0000
2202
3303
0010
0000
0100
0000
,
1000
0001
0010
1100
0010
0001
0100
0010
0001
0010
1000
0010
,
0100
0000
0001
0000
0100
0000
0011
0000
1000
0000
0100
0000
1000
0000
0010
0000
0100
0000
0222
0333
1000
0000
0010
0000
,
0100
0001
0100
1001
0010
0001
0100
0001
1000
0100
1000
0010
,
0100
0000
0010
0000
1000
0000
0011
0000
0100
0000
0001
0000
0010
0000
0001
0000
0100
0000
2220
3330
0001
0000
0010
0000
,
1100
0010
0100
0001
0100
0010
1001
0010
0100
0001
0010
0100
,
1010
0001
0100
0010
0001
0010
0101
0010
0001
1010
0101
1010
,
1100
0011
0110
1001
0101
0110
1100
0011
0110
1010
0101
0011
,
1100
0000
1001
0000
0110
0000
0101
0000
0000
0000
0000
0000
0001
0100
0010
0100
0001
0100
0010
1000
0001
0100
0001
0010
,
0100
0010
0001
1000
0100
1000
0010
0100
0010
1000
0010
0100
0001
0010
0001
0100
0010
0100
0010
1000
0010
0100
0001
0100
,
0001
0010
0001
0100
0010
0100
0010
1000
0100
1000
0001
0100
0001
0010
0001
0100
0010
0100
0010
1000
0100
1000
0001
0100
,
0010
1000
0010
0100
0010
1000
0100
0010
0100
1000
0010
0100
1000
0100
0010
1000
0010
0100
0001
0100
0001
0010
0001
0100
,
0001
1000
0100
1000
0010
0100
0010
1000
0100
0001
0100
0010
0001
0100
0010
0001
0010
1000
0010
0100
0001
0100
0010
1000
,
0010
0100
0001
0100
0010
0001
0010
1000
0010
0100
0001
0010
0100
0010
0001
1000
0100
0010
0001
0010
0001
0100
0010
0001
,
0010
0100
0010
0100
0010
1000
0010
1000
0010
0100
0001
0100
0001
0010
0001
0100
0010
0001
0010
1000
0100
1000
0001
0100
,
0001
0010
0001
0100
0010
1000
0100
1000
0001
0100
0001
0010
0001
0100
0010
0001
0010
1000
0100
0010
0100
1000
0010
0100
,
0010
0100
0010
1000
0010
0100
0001
0010
0100
0010
0000
0000
1010
0000
0011
0000
0110
0000
1100
0000
0011
0000
1001
0000
,
0110
0000
1010
0000
0101
0000
0011
0000
1100
0000
1001
0000
0110
0001
0010
1000
0010
0100
0001
0100
0001
0010
0100
0010
,
0001
0100
0001
1000
0100
1000
0011
0000
0000
0000
0000
0000
1001
0000
0011
0000
1100
0000
0101
0000
1010
0000
1100
0000
,
0110
0000
1001
0000
1100
0000
0011
0000
0110
0000
1100
0000
1001
0010
0100
1000
0001
0010
0100
1000
0100
0010
0001
1000
,
0100
0010
0001
0100
0010
0001
0110
0000
0000
0000
0000
0000
0011
0000
0101
0000
0110
0000
1010
0000
1001
0000
1010
0000
,
0011
0000
1100
0000
1010
0000
0110
0000
0011
0000
1100
0000
0011
0100
0010
1000
0001
0100
0001
0010
0001
1000
0010
0100
,
0010
0100
0001
0010
0001
0100
0001
0010
0001
0100
0000
0000
0011
0000
1010
0000
0101
0000
0110
0000
1100
0000
0011
0000
,
0101
0000
1001
0000
0110
0000
1001
0000
1010
0000
1100
0000
0101
0000
0010
0001
0100
0000
1000
0000
0001
0000
0010
0000
,
1000
0000
0100
0000
0010
0000
0001
0000
1000
0000
0100
0000
0001
0100
0010
1000
0010
0100
0001
0100
0010
1000
0100
0010
,
0001
0100
0010
0100
0010
1000
0100
1000
0100
1000
0010
0100
0010
1000
0010
0100
0001
0010
0100
1000
0010
0100
0010
0001
,
0010
0100
0010
0001
0010
0100
0001
0010
0100
0010
0001
0010
0100
0010
0001
0010
1000
0010
0100
0010
0001
0100
0010
1000
,
0010
0100
0010
1000
0100
1000
0001
0100
0001
0010
0001
0100
0010
1000
0010
0100
0010
1000
0100
1000
0001
0100
0001
0100
,
0001
0010
0001
0100
0010
0001
0010
1000
0010
0100
0001
0100
1000
0100
0001
0100
0010
0001
0010
1000
0010
0100
0001
0010
,
0100
1000
0100
0001
0100
0010
0001
0100
0010
0001
0010
1000
0010
0100
0010
1000
0100
1000
0001
0100
0001
0010
0001
0100
,
0010
0001
0010
0100
0010
1000
0010
0100
0010
1000
0100
1000
0100
1000
0001
0100
0001
0010
0100
0010
0001
0100
0010
0001
,
0010
0100
0010
1000
0010
0100
0001
0100
0001
0010
0100
1000
0100
0010
0100
1000
0010
0100
0001
0100
0001
0010
0100
0010
,
0001
1000
0100
1000
0001
0100
0010
0001
0010
1000
0010
0100
0001
0010
0100
1000
0100
0001
0100
0010
0001
1000
0001
0100
,
0001
0010
0100
1000
0100
0010
0100
0010
0001
0100
0010
0001
0010
0100
0010
1000
0010
0100
0001
0010
0100
0010
0100
0010
,
0001
0100
0010
1000
0010
0100
0001
0010
0100
1000
0100
0001
0100
1000
0100
0001
0100
1000
0010
0100
1000
0100
0010
0100
,
1000
0100
0010
1000
0010
0100
0010
1000
0100
0001
0100
0010
0001
0100
0001
0010
0001
0100
0010
0100
0010
1000
0100
1000
,
0001
0100
0001
0010
0001
0100
0010
0100
0010
1000
0100
1000
0010
0100
0010
1000
0100
1000
0001
0100
0010
0001
0010
0100
,
1000
0100
0010
0001
0010
0100
0001
0010
0100
1000
0100
0010
0001
1000
0100
0010
0001
0010
0100
1000
0010
0100
0010
1000
,
0001
0100
0001
0010
0001
1000
0100
1000
0010
0100
0010
1000
0001
0100
0001
0010
0100
0010
0001
1000
0100
1000
0010
0100
,
0001
0010
0100
0010
0001
1000
0001
0100
0001
0010
0001
1000
0100
0000
0010
0001
1000
0000
0010
0000
1000
0010
0100
0000
,
0001
0000
0100
0010
0001
0000
1000
0000
0010
0000
0100
0000
1000
0010
0100
0001
0100
0010
1000
0010
0100
0001
0010
0100
,
1000
0010
0100
0010
0100
0001
0010
0001
0010
0001
0100
0010
0100
0001
0100
0010
1000
0100
0010
0001
0100
0010
0100
1000
,
0100
0010
0100
1000
0100
0010
1000
0100
0010
0100
1000
0100
0010
0100
1000
0100
0001
0100
0010
0100
1000
0010
0100
0001
,
0100
0010
0100
0001
0010
0001
1000
0010
1000
0100
1000
0010
0100
0001
0100
0010
0100
0001
0010
0001
1000
0010
1000
0010
,
1000
0100
1000
0010
0100
1000
0100
0001
0100
0010
1000
0010
0001
0010
1000
0010
0100
1000
0100
0001
0100
0010
1000
0100
,
0010
0001
0010
1000
0010
0100
1000
0010
0100
1000
0100
0001
0100
0010
0100
0001
0010
0001
1000
0010
1000
0100
1000
0010
,
0100
1000
0100
0010
0100
0001
0100
0010
0100
0001
0010
0001
0010
0001
1000
0010
1000
0100
0010
0100
1000
0010
0100
1000
,
0100
0010
0100
0001
0100
0010
1000
0010
1000
0100
0010
0001
0010
0100
0010
0001
0100
0010
1000
0010
1000
0100
0010
0100
,
1000
0001
0010
0001
1000
0010
0100
1000
0100
0001
0100
0010
1000
0100
0010
0001
0010
1000
0010
0100
1000
0001
1000
0010
,
1000
0100
0010
0001
0010
0100
0010
0100
1000
0010
0100
1000
0100
0010
0100
0001
0100
0010
1000
0100
0010
0100
0010
0100
,
1000
0010
0100
0001
0100
0010
1000
0100
0010
0001
0010
1000
0010
0001
0010
1000
0010
0001
0100
0010
0001
0010
0100
0010
,
0001
0010
0100
0001
0100
0010
0100
0001
0010
1000
0010
0100
1000
0010
1000
0100
1000
0010
0100
0010
0100
0001
0010
0001
,
1000
0010
1000
0100
1000
0010
0100
0010
0100
0001
0010
0001
0100
0010
0100
0001
0010
0001
1000
0010
0100
1000
0100
0010
,
0001
0010
0100
1000
0100
0010
1000
0100
0010
0001
0010
0100
1000
0001
0010
0100
1000
0100
0010
0001
0100
0010
0100
0001
,
1000
0010
1000
0100
1000
0001
0010
0001
0100
0010
0100
0001
1000
0010
1000
0100
0010
0100
1000
0001
0010
0001
0100
0010
,
1000
0100
0010
0100
1000
0001
1000
0010
1000
0100
1000
0001
0010
0001
0100
0001
1000
0001
1000
0001
0100
0010
0100
0001
,
1000
0010
0100
1000
0100
0001
0220
0000
0000
0330
0000
0000
1100
0000
0101
0000
1010
0000
0101
0000
1001
0000
1100
0000
,
0110
0000
1001
0000
0101
0000
0011
0000
1010
0000
0110
0000
1010
0001
0100
0001
1000
0100
1000
0010
0100
0010
1000
0010
,
0100
0001
0010
0100
0010
0100
0010
0001
0100
0010
1000
0100
1001
0000
1010
0000
0101
0000
1001
0000
1100
0000
0110
0000
,
1010
0000
0101
0000
0011
0000
1001
0000
1010
0000
0110
0000
0010
0100
0001
0010
0100
0010
0001
0100
0010
1000
0010
0100
,
0001
1000
0100
0010
0001
0100
0010
1000
0001
1000
0010
1000
0101
0000
1010
0000
1001
0000
1100
0000
0101
0000
0011
0000
,
1001
0000
1100
0000
0110
0000
1001
0000
1010
0000
0101
0000
1010
0001
0100
0001
0010
0001
1000
0100
1000
0010
0100
0010
,
1000
0100
1000
0010
0100
0010
1000
0001
0100
0001
0010
0001
1100
0000
0101
0000
1010
0000
0101
0000
1001
0000
1100
0000
,
0110
0000
1001
0000
0101
0000
0011
0000
1010
0000
0110
0000
1010
0001
0100
0001
1000
0100
1000
0010
0100
0010
1000
0010
,
0100
0001
0010
0100
0010
1000
0010
0001
0100
0010
1000
0100
1001
0000
1010
0000
0101
0000
1001
0000
1100
0000
0110
0000
,
1010
0000
0101
0000
0011
0000
1001
0000
1010
0000
0110
0000
1010
0100
0001
0010
0100
0010
0001
0100
0010
1000
0010
0100
,
0001
1000
0100
0010
0001
0100
0010
1000
0001
0100
0010
0001
1100
0000
0101
0000
1010
0000
0101
0000
1001
0000
1100
0000
,
0110
0000
1001
0000
0101
0000
0011
0000
1010
0000
0110
0000
1010
0001
0100
0001
1000
0100
1000
0010
0100
0010
1000
0010
,
0100
0001
0010
0100
0010
0100
0010
0001
0100
0010
1000
0100
2022
3033
1010
0000
0101
0000
1001
0000
1100
0000
0110
0000
,
2220
3330
0101
0000
0011
0000
1100
0000
1001
0000
0101
0000
0222
0333
1001
0000
1100
0000
1010
0000
0110
0000
1010
0000
,
2022
3033
0101
0000
0011
0000
1001
0000
1100
0000
1010
0000
2220
3330
1001
0000
0101
0000
0011
0000
1001
0000
1100
0000
,
0110
0000
1001
0000
0101
0000
0011
0000
1010
0000
0101
0000
0222
0333
1100
0000
1001
0000
0101
0000
0011
0000
1001
0000
,
0101
0000
1010
0000
1100
0000
0101
0000
0011
0000
0101
0000
2220
3330
0110
0000
1010
0000
0101
0000
1001
0000
1100
0000
,
2202
3303
0101
0000
0011
0000
0110
0000
1010
0000
0110
0000
2022
3033
0101
0000
0011
0000
1001
0000
1100
0000
0110
0000
,
2220
3330
0101
0000
0011
0000
1010
0000
1100
0000
0101
0000
2022
3033
0110
0000
1010
0000
1001
0000
1100
0000
0110
0000
,
1010
0000
0101
0000
0011
0000
1100
0000
0110
0000
1010
0000
2022
3033
1001
0000
1100
0000
0011
0000
1100
0000
1010
0000
,
0011
0000
1010
0000
0101
0000
0011
0000
1001
0000
1100
0000
2220
3330
0101
0000
0011
0000
1001
0000
1100
0000
1010
0000
,
0222
0333
1001
0000
1100
0000
0110
0000
1001
0000
1010
0000
2220
3330
0101
0000
0011
0000
1001
0000
1100
0000
1010
0000
,
2202
3303
0011
0000
1001
0000
0110
0000
1010
0000
0101
0000
0222
0333
1001
0000
1100
0000
1010
0000
0101
0000
0011
0000
,
1100
0000
1010
0000
0101
0000
0011
0000
1001
0000
1100
0000
2022
3033
0110
0000
0101
0000
0011
0000
1001
0000
1100
0000
,
0110
0000
1001
0000
1100
0000
0110
0000
1010
0000
0101
0000
2220
3330
1001
0000
1100
0000
0011
0000
0110
0000
0101
0000
,
0222
0333
1001
0000
1100
0000
0110
0000
0101
0000
0011
0000
2022
3033
1100
0000
1010
0000
0110
0000
1001
0000
0101
0000
,
0222
0333
1001
0000
1100
0000
1010
0000
0110
0000
1001
0000
2202
3303
0011
0000
1100
0000
1010
0000
0101
0000
0011
0000
,
1010
0000
1100
0000
0110
0000
1001
0000
1010
0000
0110
0000
0101
1000
0010
0100
0001
0010
0100
0010
0001
1000
0100
1000
,
0010
0100
0010
1000
0010
0100
0001
0010
0001
0100
0010
1000
0222
0000
0000
0000
0000
0000
0000
0000
0000
0000
0000
0000
,
0000
0000
0000
0000
,
0333
0000
0000
0000
;

//---------------dance-single - HEAVY----------------
#NOTES:
     dance-single:
     HEAVY:
     Challenge:
     13:
     1.000,1.000,1.000,0.790,1.000:



0000
0000
0000
0000
0000
0000
0011
0100
0010
1000
0010
0100
0011
0100
0010
1000
0100
0010
1001
0100
0010
0100
0010
1000
,
0110
1000
0100
1000
0010
0100
0011
1000
0010
0100
0001
0010
0101
1000
0010
0100
0010
0001
1010
0100
0010
0001
0010
0100
,
1001
0010
0100
0010
0001
0010
1100
0010
0001
0010
1000
0010
0101
0010
0001
0100
0010
1000
0011
0100
0010
1000
0100
1000
,
0011
0100
0001
0010
0001
0100
0011
1000
0010
0100
0010
1000
0110
1000
0001
0100
0001
0100
1001
0010
0001
0100
0010
0001
,
0110
1000
0010
0100
0001
0100
1010
0100
0001
0100
0010
0001
0110
1000
0010
0100
0001
0010
0101
1000
0100
0001
0100
0010
,
1001
0100
0010
0001
0010
1000
0011
0100
0010
1000
0100
1000
0011
0100
0001
0010
0001
0100
1010
0001
0010
0100
0010
1000
,
0011
0100
0010
1000
0100
1000
0110
1000
0001
0100
0001
0010
1100
0010
0001
0100
0010
0001
1010
0100
0010
1000
0010
0100
,
0011
0100
0001
0010
0100
1000
0101
0010
0100
1000
0010
0100
0011
0100
0001
0010
0100
0010
0101
1000
0100
1000
0001
0100
,
1010
0001
0010
1000
0010
0100
1001
0010
0100
1000
0100
0001
1100
0010
0001
1000
0001
0100
1001
0010
0100
1000
0100
0010
,
1100
0010
0001
0100
0010
0001
1010
0100
0010
1000
0010
0100
1001
0010
0100
0010
0100
0010
1001
0100
0010
1000
0010
0100
,
1001
0010
0100
1000
0100
0001
0110
1000
0100
0001
0100
1000
0011
0100
1000
0100
0010
0100
1001
0100
0010
1000
0010
0100
,
0011
1000
0100
0001
0100
0010
1001
0100
0001
0010
0001
0100
1010
0100
0010
1000
0100
1000
0011
0100
0001
0010
0001
0100
,
1010
0100
0010
1000
0100
1000
0011
0100
0010
1000
0100
1000
0011
0100
0010
0001
0010
0100
1001
0100
0010
0001
0010
0100
,
1001
0010
0100
1000
0100
0010
0101
1000
0100
0010
0001
0010
0101
1000
0010
0100
0010
1000
0011
0100
0001
0010
0001
1000
,
0101
1000
0010
0100
0010
1000
0011
0100
0001
0010
0100
0010
0101
1000
0100
1000
0010
0100
1001
0010
0100
0010
0001
1000
,
0011
0100
0001
0010
0001
1000
0101
1000
0010
1000
0001
1000
0101
1000
0010
0100
0010
1000
0011
0100
0010
0001
0010
1000
,
0220
0000
0000
0000
0000
0000
0330
0000
0000
0000
0000
0000
2022
0000
0000
3033
0110
0000
0000
0000
1010
0000
0000
0000
0101
0000
0000
0000
0011
0000
0000
0000
1001
0000
0000
0000
2220
0000
3330
0000
1010
0000
0000
0000
1001
0000
0000
0000
,
0101
0000
0000
0000
0011
0000
0000
0000
1001
0000
0000
0000
0222
0000
0000
0333
0110
0000
0000
0000
1010
0000
0000
0000
0101
0000
0000
0000
0011
0000
0000
0000
1001
0000
0000
0000
2202
0000
3303
0000
1010
0000
0000
0000
0110
0000
0000
0000
,
1010
0000
0101
0000
1100
0000
0222
0333
1100
0000
1001
0000
0101
0000
0011
0000
1001
0000
2220
3330
0011
0000
0101
0000
,
1010
0000
0110
0000
0101
0000
2022
3033
1100
0000
1010
0000
0110
0000
1001
0000
0110
0000
2202
3303
0110
0000
0101
0000
,
0011
0000
1001
0000
1100
0000
0222
0333
1001
0000
1100
0000
1010
0000
0101
0000
0011
0000
2220
3330
1001
0000
1100
0000
,
1010
0000
0101
0000
0110
0000
2202
3303
0011
0000
0110
0000
1010
0000
0101
0000
1100
0000
0222
0333
1100
0000
0110
0000
,
1010
0000
0101
0000
0110
0000
2022
3033
1100
0000
0101
0000
0011
0000
1001
0000
1010
0000
2220
3330
0101
0000
1010
0000
,
1001
0000
1100
0000
1010
0000
0222
0333
1010
0000
0101
0000
1100
0000
0001
0000
0010
0000
1001
0000
0100
0000
0010
0000
,
0101
0000
1000
0000
0100
0000
0011
0100
0010
0100
0001
0100
0011
1000
0001
0100
0001
0010
1100
0010
0001
1000
0100
1000
,
0011
0100
0010
1000
0010
0100
1001
0010
0001
0100
0010
0100
0011
1000
0010
0100
0001
0100
1001
0010
0001
0100
0010
0100
,
0011
1000
0100
1000
0001
0100
1001
0010
0001
0100
0010
0100
0011
1000
0100
1000
0001
0100
0011
1000
0010
0100
0010
1000
,
0101
0010
0100
1000
0010
0100
1010
0100
0010
1000
0010
0100
1001
0100
0001
0010
0001
0100
0011
1000
0100
1000
0010
0100
,
0011
1000
0100
0001
0100
0010
1001
0100
0010
0001
0010
1000
0011
0100
0001
0100
0010
1000
0011
0100
0001
0100
0010
0001
,
0110
1000
0010
0100
0001
0010
1100
0010
0001
1000
0100
0010
1001
0010
0001
0100
0010
0001
1010
0100
0010
0100
0010
1000
,
0011
1000
0010
0100
0001
0100
1001
0010
0001
0100
0010
0001
0110
1000
0100
1000
0001
0100
1001
0010
0001
0100
0010
1000
,
0110
1000
0001
0100
0001
0010
1001
0100
0010
0001
0010
1000
0101
0010
0100
1000
0010
0100
0011
0100
0010
1000
0010
0100
,
1001
0010
0100
0010
0001
0100
1010
0001
0010
1000
0010
0100
1001
0100
0010
0100
1000
0100
0011
1000
0010
0100
0010
1000
,
0110
0001
0100
0010
0001
0100
1010
0001
0010
1000
0010
0100
1001
0100
0001
0010
0100
0010
1001
0100
0001
1000
0100
1000
,
0011
0100
0010
1000
0001
0100
1001
0100
0010
0001
0010
1000
0011
0100
0001
0100
0001
0010
0101
1000
0100
0010
0100
1000
,
0011
0100
0010
1000
0100
0010
1001
0010
0100
1000
0001
0010
0101
1000
0100
0010
0001
1000
0101
0010
0001
0100
0010
0001
,
0110
1000
0010
0100
0001
0100
0011
1000
0100
1000
0010
0100
0011
1000
0001
0100
0010
1000
0101
0010
0001
0010
1000
0010
,
1001
0100
0001
1000
0100
1000
0011
0100
0010
1000
0001
0100
1001
0010
0001
1000
0010
0100
1010
0100
0001
0010
0001
0100
,
1001
0010
0001
0100
0010
1000
0011
0100
0010
1000
0001
0100
1010
0001
0010
0100
0010
1000
0110
1000
0001
0100
0001
0010
,
1001
0100
0010
1000
0100
1000
0011
0100
0001
0010
0001
1000
0101
1000
0010
0100
0010
1000
0101
0010
0001
0100
0010
0100
,
2020
0000
0000
3030
0000
0000
1100
0000
0101
0000
1010
0000
0101
0000
1001
0000
1100
0000
0110
0000
1001
0000
0101
0000
,
0011
0000
1010
0000
0110
0000
1010
0001
0100
0001
1000
0100
1001
0010
0100
0010
1000
0010
1100
0001
0010
0100
0010
0100
,
1001
0100
0010
1001
1010
0101
1001
1100
0110
1010
0101
0011
,
1001
0000
1010
0000
0110
0000
1010
0100
0001
0010
0100
0010
1001
0100
0010
1000
0010
0100
0011
1000
0100
0010
0001
0100
,
2020
0000
0000
0000
0000
0000
0000
0000
0000
3030
0000
0000
0101
0000
0000
0000
1010
0000
0000
0000
1001
0000
0000
0000
1100
0000
0000
0000
0101
0000
0000
0000
0011
0000
0000
0000
1001
0000
0000
0000
1100
0000
0000
0000
0110
0000
0000
0000
,
1001
0000
1010
0000
0101
0000
1010
0001
0100
0001
0010
0001
1010
0100
1000
0010
0100
0010
1001
0100
1000
0010
0100
0010
,
1100
0001
0100
0010
0000
0000
1001
0000
1100
0000
0101
0000
0011
0000
1001
0000
0110
0000
1010
0000
0101
0000
0011
0000
,
1001
1100
0110
1000
0100
0010
0001
1000
0100
0001
0010
0100
,
1000
0000
0000
0000
0001
0000
0000
0000
0010
0000
0000
0000
0100
0000
0010
0000
0001
0010
2000
0000
0000
0000
3000
0000
0010
0000
0001
0000
1000
0010
0200
0000
0000
0000
0300
0000
1000
0000
0010
0000
1000
0001
0020
0000
0000
0000
0030
0000
,
1001
0000
0000
0000
0101
0000
0000
0000
0110
0000
0000
0000
1001
0000
0000
0000
1100
0000
0000
0000
1010
0000
0000
0000
0111
0000
1000
0000
0001
0100
0020
0000
0000
0000
0030
0000
0100
0000
0001
0000
1000
0100
0002
0000
0000
0000
0003
0000
,
0010
0000
1000
0000
0010
0001
0200
0000
0000
0000
0300
0000
1001
0000
0000
0000
0110
0000
0000
0000
1100
0000
0000
0000
0011
0000
0000
0000
1010
0000
0000
0000
0101
0000
0000
0000
0111
0000
0000
0000
1000
0000
0000
0000
0100
0000
1000
0000
,
0021
0000
0130
0000
0010
0000
0100
0000
0001
0000
1000
0001
1200
0000
0310
0000
0100
0000
0001
0000
0100
0000
1000
0100
,
0021
0000
0130
0000
0010
0000
1001
0000
0110
0000
1100
0000
0011
0000
0101
0000
0110
0000
1101
0000
0010
0000
1000
0001
,
0210
0000
0301
0000
0100
0000
0010
0000
0100
0000
0001
0010
1200
0000
0310
0000
0001
0000
0100
0000
0010
0000
1000
0100
,
0012
0000
0103
0000
0010
0000
1001
0000
0110
0000
1010
0000
1001
0000
1100
0000
0011
0000
1110
0000
0001
0000
0100
1000
,
0021
0000
1030
0000
0010
0000
0100
0000
0001
0000
1000
0001
0210
0000
0301
0000
0100
0000
0001
0000
0010
0000
0001
0100
,
1020
0000
1030
0000
0100
0000
1001
0000
0110
0000
0101
0000
1100
0000
0110
0000
0011
0000
1101
0000
0010
0000
0001
0100
,
0021
0000
1030
0000
0010
0000
0100
0000
0001
0000
0100
0010
2001
0000
3010
0000
0100
0000
0001
0000
0100
0000
1000
0100
,
1020
0000
0000
0000
0130
0000
0000
0000
0010
0000
0000
0000
1100
0000
0000
0000
0110
0000
0000
0000
1001
0000
0000
0000
0110
0000
0000
0000
1010
0000
0000
0000
0101
0000
0000
0000
0222
0000
0000
0333
0000
0000
2220
0000
0000
3330
0000
0000
,
2202
3303
2220
3330
0222
0333
2202
3303
2022
3033
2220
3330
0222
0333
2202
3303
,
2022
0000
0000
3033
0000
0000
0222
0000
0000
0333
0000
0000
2220
0000
0000
3330
0000
0000
0111
0000
1000
0010
0100
0000
0001
0000
0010
0001
0100
0000
0010
0000
0100
0000
0001
0000
1110
0000
0000
0000
0000
0000
0111
0000
0000
0000
0000
0000
,
1110
0001
0100
1011
0000
0000
0111
0000
0000
1101
0000
0000
0111
1000
0010
1101
0010
1000
0111
0000
0000
1110
0000
0000
,
1011
0000
0100
0000
0001
0000
1110
0000
0000
0000
0000
0000
1011
0000
0010
1000
0100
0000
0010
0000
0001
0100
0010
0000
1000
0000
0010
0100
0001
0000
1001
0000
0110
0000
0011
0000
1100
0000
0000
0000
0001
0000
0000
0000
0100
0000
1000
0000
,
0021
0000
0130
0000
0010
0000
0100
0000
0001
0000
1000
0001
1200
0000
0310
0000
0100
0000
0001
0000
0100
0000
1000
0100
,
0021
0000
0130
0000
0010
0000
1001
0000
0110
0000
1100
0000
0011
0000
0101
0000
0110
0000
1101
0000
0010
0000
1000
0001
,
1200
0000
0301
0000
0100
0000
0010
0000
0100
0000
0001
0010
1200
0000
0310
0000
0001
0000
0100
0000
0010
0000
1000
0100
,
0012
0000
0103
0000
0010
0000
1001
0000
0110
0000
1010
0000
1001
0000
1100
0000
0011
0000
1110
0000
0001
0000
0100
1000
,
0021
0000
1030
0000
0010
0000
0100
0000
0001
0000
1000
0001
0210
0000
0301
0000
0100
0000
0001
0000
0010
0000
0001
0100
,
1020
0000
1030
0000
0100
0000
1001
0000
0110
0000
0101
0000
1100
0000
0110
0000
0011
0000
1101
0000
0010
0000
0001
0100
,
0021
0000
1030
0000
0010
0000
0100
0000
0001
0000
0100
0010
2100
0000
3010
0000
0100
0000
0001
0000
1000
0001
1000
0100
,
0020
0000
0130
0000
0010
0000
1100
0000
0110
0000
1001
0000
0110
0000
1010
0000
0101
0000
2220
3330
0001
0000
0100
0000
,
0010
1000
0100
1001
0100
0010
0001
1000
0100
0010
1000
0010
,
0100
0000
0001
0000
0010
0000
1100
0000
0010
0000
0001
0000
0100
0000
0010
0000
1000
0000
2022
3033
0100
0000
0001
0000
,
0100
1000
0100
0011
0100
0010
1000
0010
0100
0001
0100
1000
,
0100
0000
0010
0000
1000
0000
0011
0000
0100
0000
0001
0000
0100
0000
0010
0000
0001
0000
0222
0333
1000
0000
0100
0000
,
0001
0100
0010
1001
0010
1000
0010
0001
0100
0010
0001
0010
,
1000
0000
0100
0000
0001
0000
0110
0000
1000
0000
0010
0000
0100
0000
1000
0000
0100
0000
2220
3330
1000
0000
0010
0000
,
0100
1000
0100
0011
1000
0010
0100
0001
0010
0100
0010
0001
,
0100
0000
0010
0000
0001
0000
1010
0000
0110
0000
1001
0000
1100
0000
0110
0000
0011
0000
2022
3033
0100
0000
0001
0000
,
1000
0100
1000
0011
0100
0001
0010
0001
1000
0100
1000
0010
,
0100
0000
0010
0000
1000
0000
0101
0000
0010
0000
0001
0000
1000
0000
0100
0000
0010
0000
2202
3303
0010
0000
0100
0000
,
1000
0001
0010
1100
0010
0001
0100
0010
0001
0010
1000
0010
,
0100
0000
0001
0000
0100
0000
0011
0000
1000
0000
0100
0000
1000
0000
0010
0000
0100
0000
0222
0333
1000
0000
0010
0000
,
0100
0001
0100
1001
0010
0001
0100
0001
1000
0100
1000
0010
,
0100
0000
0010
0000
1000
0000
0011
0000
0100
0000
0001
0000
0010
0000
0001
0000
0100
0000
2220
3330
0001
0000
0010
0000
,
1100
0010
0100
0001
0100
0010
1001
0010
0100
0001
0010
0100
,
1010
0001
0100
0010
0001
0010
0101
0010
0001
1010
0101
1010
,
1100
0011
0110
1001
0101
0110
1100
0011
0110
1010
0101
0011
,
1100
0000
1001
0000
0110
0000
0101
0000
0000
0000
0000
0000
1001
0100
0010
0100
0001
0100
0011
1000
0001
0100
0001
0010
,
1100
0010
0001
1000
0100
1000
0011
0100
0010
1000
0010
0100
1001
0010
0001
0100
0010
0100
0011
1000
0010
0100
0001
0100
,
1001
0010
0001
0100
0010
0100
0011
1000
0100
1000
0001
0100
1001
0010
0001
0100
0010
0100
0011
1000
0100
1000
0001
0100
,
0011
1000
0010
0100
0010
1000
0101
0010
0100
1000
0010
0100
1010
0100
0010
1000
0010
0100
0011
0100
0001
0010
0001
0100
,
0011
1000
0100
1000
0010
0100
0011
1000
0100
0001
0100
0010
1001
0100
0010
0001
0010
1000
0011
0100
0001
0100
0010
1000
,
0011
0100
0001
0100
0010
0001
0110
1000
0010
0100
0001
0010
0101
0010
0001
1000
0100
0010
0101
0010
0001
0100
0010
0001
,
1010
0100
0010
0100
0010
1000
0110
1000
0010
0100
0001
0100
1001
0010
0001
0100
0010
0001
0110
1000
0100
1000
0001
0100
,
1001
0010
0001
0100
0010
1000
0110
1000
0001
0100
0001
0010
1001
0100
0010
0001
0010
1000
0101
0010
0100
1000
0010
0100
,
0011
0100
0010
1000
0010
0100
1001
0010
0100
0010
0000
0000
1010
0000
0011
0000
0110
0000
1100
0000
0011
0000
1001
0000
,
0110
0000
1010
0000
0101
0000
0011
0000
1100
0000
1001
0000
0110
0001
0010
1000
0010
0100
1001
0100
0001
0010
0100
0010
,
1001
0100
0001
1000
0100
1000
0011
0000
0000
0000
0000
0000
1001
0000
0011
0000
1100
0000
0101
0000
1010
0000
1100
0000
,
0110
0000
1001
0000
1100
0000
0011
0000
0110
0000
1100
0000
1001
0010
0100
1000
0001
0010
0101
1000
0100
0010
0001
1000
,
0101
0010
0001
0100
0010
0001
0110
0000
0000
0000
0000
0000
0011
0000
0101
0000
0110
0000
1010
0000
1001
0000
1010
0000
,
0011
0000
1100
0000
1010
0000
0110
0000
0011
0000
1100
0000
0011
0100
0010
1000
0001
0100
1001
0010
0001
1000
0010
0100
,
1010
0100
0001
0010
0001
0100
1001
0010
0001
0100
0000
0000
0011
0000
1010
0000
0101
0000
0110
0000
1100
0000
0011
0000
,
0101
0000
1001
0000
0110
0000
1001
0000
1010
0000
1100
0000
0101
0000
0010
0001
0100
0000
1000
0000
0001
0000
0010
0000
,
1000
0000
0100
0000
0010
0000
0001
0000
1000
0000
0100
0000
0011
0100
0010
1000
0010
0100
0011
0100
0010
1000
0100
0010
,
1001
0100
0010
0100
0010
1000
0110
1000
0100
1000
0010
0100
0011
1000
0010
0100
0001
0010
0101
1000
0010
0100
0010
0001
,
1010
0100
0010
0001
0010
0100
1001
0010
0100
0010
0001
0010
0101
0010
0001
0010
1000
0010
1100
0010
0001
0100
0010
1000
,
0011
0100
0010
1000
0100
1000
0011
0100
0001
0010
0001
0100
0011
1000
0010
0100
0010
1000
0110
1000
0001
0100
0001
0100
,
1001
0010
0001
0100
0010
0001
0110
1000
0010
0100
0001
0100
1010
0100
0001
0100
0010
0001
0110
1000
0010
0100
0001
0010
,
0101
1000
0100
0001
0100
0010
1001
0100
0010
0001
0010
1000
0011
0100
0010
1000
0100
1000
0011
0100
0001
0010
0001
0100
,
1010
0001
0010
0100
0010
1000
0011
0100
0010
1000
0100
1000
0110
1000
0001
0100
0001
0010
0101
0010
0001
0100
0010
0001
,
1010
0100
0010
1000
0010
0100
0011
0100
0001
0010
0100
1000
0101
0010
0100
1000
0010
0100
0011
0100
0001
0010
0100
0010
,
0101
1000
0100
1000
0001
0100
1010
0001
0010
1000
0010
0100
1001
0010
0100
1000
0100
0001
1100
0010
0001
1000
0001
0100
,
1001
0010
0100
1000
0100
0010
1100
0010
0001
0100
0010
0001
1010
0100
0010
1000
0010
0100
1001
0010
0100
0010
0100
0010
,
1001
0100
0010
1000
0010
0100
1001
0010
0100
1000
0100
0001
0110
1000
0100
0001
0100
1000
0011
0100
1000
0100
0010
0100
,
1001
0100
0010
1000
0010
0100
0011
1000
0100
0001
0100
0010
1001
0100
0001
0010
0001
0100
0011
0100
0010
1000
0100
1000
,
0011
0100
0001
0010
0001
0100
1010
0100
0010
1000
0100
1000
0011
0100
0010
1000
0100
1000
0011
0100
0010
0001
0010
0100
,
1010
0100
0010
0001
0010
0100
1001
0010
0100
1000
0100
0010
0101
1000
0100
0010
0001
0010
0101
1000
0010
0100
0010
1000
,
0011
0100
0001
0010
0001
1000
0101
1000
0010
0100
0010
1000
0011
0100
0001
0010
0100
0010
0101
1000
0100
1000
0010
0100
,
1001
0010
0100
0010
0001
1000
0011
0100
0001
0010
0001
1000
0101
0000
0010
0001
1000
0000
0010
0000
1000
0010
0100
0000
,
0001
0000
0100
0010
0001
0000
1000
0000
0010
0000
0100
0000
1100
0010
0100
0001
0100
0010
1100
0010
0100
0001
0010
0100
,
1001
0010
0100
0010
0100
0001
0110
0001
0010
0001
0100
0010
1100
0001
0100
0010
1000
0100
1010
0001
0100
0010
0100
1000
,
0101
0010
0100
1000
0100
0010
1001
0100
0010
0100
1000
0100
0011
0100
1000
0100
0001
0100
0011
0100
1000
0010
0100
0001
,
1100
0010
0100
0001
0010
0001
1100
0010
1000
0100
1000
0010
1100
0001
0100
0010
0100
0001
0110
0001
1000
0010
1000
0010
,
1001
0100
1000
0010
0100
1000
0110
0001
0100
0010
1000
0010
0101
0010
1000
0010
0100
1000
0110
0001
0100
0010
1000
0100
,
1010
0001
0010
1000
0010
0100
1001
0010
0100
1000
0100
0001
1100
0010
0100
0001
0010
0001
1100
0010
1000
0100
1000
0010
,
0101
1000
0100
0010
0100
0001
1100
0010
0100
0001
0010
0001
0110
0001
1000
0010
1000
0100
0011
0100
1000
0010
0100
1000
,
0101
0010
0100
0001
0100
0010
1100
0010
1000
0100
0010
0001
1010
0100
0010
0001
0100
0010
1001
0010
1000
0100
0010
0100
,
1010
0001
0010
0001
1000
0010
0101
1000
0100
0001
0100
0010
1001
0100
0010
0001
0010
1000
0011
0100
1000
0001
1000
0010
,
1001
0100
0010
0001
0010
0100
0011
0100
1000
0010
0100
1000
0101
0010
0100
0001
0100
0010
1001
0100
0010
0100
0010
0100
,
1001
0010
0100
0001
0100
0010
1001
0100
0010
0001
0010
1000
0110
0001
0010
1000
0010
0001
1100
0010
0001
0010
0100
0010
,
0101
0010
0100
0001
0100
0010
1100
0001
0010
1000
0010
0100
1001
0010
1000
0100
1000
0010
1100
0010
0100
0001
0010
0001
,
1100
0010
1000
0100
1000
0010
0101
0010
0100
0001
0010
0001
1100
0010
0100
0001
0010
0001
1100
0010
0100
1000
0100
0010
,
0101
0010
0100
1000
0100
0010
1001
0100
0010
0001
0010
0100
1010
0001
0010
0100
1000
0100
1010
0001
0100
0010
0100
0001
,
1100
0010
1000
0100
1000
0001
0110
0001
0100
0010
0100
0001
1100
0010
1000
0100
0010
0100
1010
0001
0010
0001
0100
0010
,
1001
0100
0010
0100
1000
0001
1100
0010
1000
0100
1000
0001
0110
0001
0100
0001
1000
0001
1100
0001
0100
0010
0100
0001
,
1100
0010
0100
1000
0100
0001
0220
0000
0000
0330
0000
0000
1100
0000
0101
0000
1010
0000
0101
0000
1001
0000
1100
0000
,
0110
0000
1001
0000
0101
0000
0011
0000
1010
0000
0110
0000
1010
0001
0100
0001
1000
0100
1001
0010
0100
0010
1000
0010
,
1100
0001
0010
0100
0010
0100
1010
0001
0100
0010
1000
0100
1001
0000
1010
0000
0101
0000
1001
0000
1100
0000
0110
0000
,
1010
0000
0101
0000
0011
0000
1001
0000
1010
0000
0110
0000
1010
0100
0001
0010
0100
0010
1001
0100
0010
1000
0010
0100
,
0011
1000
0100
0010
0001
0100
0011
1000
0001
1000
0010
1000
0101
0000
1010
0000
1001
0000
1100
0000
0101
0000
0011
0000
,
1001
0000
1100
0000
0110
0000
1001
0000
1010
0000
0101
0000
1010
0001
0100
0001
0010
0001
1010
0100
1000
0010
0100
0010
,
1001
0100
1000
0010
0100
0010
1100
0001
0100
0001
0010
0001
1100
0000
0101
0000
1010
0000
0101
0000
1001
0000
1100
0000
,
0110
0000
1001
0000
0101
0000
0011
0000
1010
0000
0110
0000
1010
0001
0100
0001
1000
0100
1001
0010
0100
0010
1000
0010
,
1100
0001
0010
0100
0010
1000
0110
0001
0100
0010
1000
0100
1001
0000
1010
0000
0101
0000
1001
0000
1100
0000
0110
0000
,
1010
0000
0101
0000
0011
0000
1001
0000
1010
0000
0110
0000
1010
0100
0001
0010
0100
0010
1001
0100
0010
1000
0010
0100
,
0011
1000
0100
0010
0001
0100
0011
1000
0001
0100
0010
0001
1100
0000
0101
0000
1010
0000
0101
0000
1001
0000
1100
0000
,
0110
0000
1001
0000
0101
0000
0011
0000
1010
0000
0110
0000
1010
0001
0100
0001
1000
0100
1001
0010
0100
0010
1000
0010
,
1100
0001
0010
0100
0010
0100
1010
0001
0100
0010
1000
0100
2022
3033
1010
0000
0101
0000
1001
0000
1100
0000
0110
0000
,
2220
3330
0101
0000
0011
0000
1100
0000
1001
0000
0101
0000
0222
0333
1001
0000
1100
0000
1010
0000
0110
0000
1010
0000
,
2022
3033
0101
0000
0011
0000
1001
0000
1100
0000
1010
0000
2220
3330
1001
0000
0101
0000
0011
0000
1001
0000
1100
0000
,
0110
0000
1001
0000
0101
0000
0011
0000
1010
0000
0101
0000
0222
0333
1100
0000
1001
0000
0101
0000
0011
0000
1001
0000
,
0101
0000
1010
0000
1100
0000
0101
0000
0011
0000
0101
0000
2220
3330
0110
0000
1010
0000
0101
0000
1001
0000
1100
0000
,
2202
3303
0101
0000
0011
0000
0110
0000
1010
0000
0110
0000
2022
3033
0101
0000
0011
0000
1001
0000
1100
0000
0110
0000
,
2220
3330
0101
0000
0011
0000
1010
0000
1100
0000
0101
0000
2022
3033
0110
0000
1010
0000
1001
0000
1100
0000
0110
0000
,
1010
0000
0101
0000
0011
0000
1100
0000
0110
0000
1010
0000
2022
3033
1001
0000
1100
0000
0011
0000
1100
0000
1010
0000
,
0011
0000
1010
0000
0101
0000
0011
0000
1001
0000
1100
0000
2220
3330
0101
0000
0011
0000
1001
0000
1100
0000
1010
0000
,
0222
0333
1001
0000
1100
0000
0110
0000
1001
0000
1010
0000
2220
3330
0101
0000
0011
0000
1001
0000
1100
0000
1010
0000
,
2202
3303
0011
0000
1001
0000
0110
0000
1010
0000
0101
0000
0222
0333
1001
0000
1100
0000
1010
0000
0101
0000
0011
0000
,
1100
0000
1010
0000
0101
0000
0011
0000
1001
0000
1100
0000
2022
3033
0110
0000
0101
0000
0011
0000
1001
0000
1100
0000
,
0110
0000
1001
0000
1100
0000
0110
0000
1010
0000
0101
0000
2220
3330
1001
0000
1100
0000
0011
0000
0110
0000
0101
0000
,
0222
0333
1001
0000
1100
0000
0110
0000
0101
0000
0011
0000
2022
3033
1100
0000
1010
0000
0110
0000
1001
0000
0101
0000
,
0222
0333
1001
0000
1100
0000
1010
0000
0110
0000
1001
0000
2202
3303
0011
0000
1100
0000
1010
0000
0101
0000
0011
0000
,
1010
0000
1100
0000
0110
0000
1001
0000
1010
0000
0110
0000
0101
1000
0010
0100
0001
0010
0100
0010
0001
1000
0100
1000
,
0010
0100
0010
1000
0010
0100
0001
0010
0001
0100
0010
1000
0222
0000
0000
0000
0000
0000
0000
0000
0000
0000
0000
0000
,
0000
0000
0000
0000
,
0333
0000
0000
0000
;

//---------------dance-single - HEAVY----------------
#NOTES:
     dance-single:
     HEAVY:
     Medium:
     10:
     1.000,0.722,1.000,0.696,1.000:



0000
0000
0000
1000
0010
0010
0100
0001
0001
0010
0100
0100
,
1000
0010
0010
0100
1000
1000
0100
0010
0010
0100
0001
0001
,
0010
0001
0001
0100
0010
0010
1000
0100
0100
1000
0010
0010
,
0100
1000
1000
0100
0010
0010
0100
1000
1000
0100
0001
0100
,
2000
0000
3000
0010
0100
0100
0010
1000
1000
0010
0001
0001
,
0100
0010
0010
0100
0010
0010
0100
0001
0001
0010
0100
0100
,
1000
0010
0010
0100
0001
0001
1000
0100
0100
1000
0010
0010
,
0100
1000
1000
0100
0010
0010
0100
0001
0001
0010
0100
0001
,
2000
0000
3000
0100
0001
0001
1000
0010
0010
0100
0001
0001
,
0010
0100
0100
1000
0010
0010
0100
0001
0001
0010
0100
0100
,
0010
1000
1000
0010
0001
0001
0010
1000
1000
0010
0001
0001
,
0100
0010
0010
0100
0001
0001
0100
1000
1000
0100
0010
0001
,
0200
0000
0300
1000
0001
0001
0010
0001
0001
0100
0010
0010
,
0100
0001
0001
0010
1000
1000
0010
0001
0001
0100
0010
0010
,
1000
0100
0100
1000
0010
0010
0100
0001
0001
0010
1000
1000
,
0010
0100
0100
0010
0001
0001
0100
0010
0010
1000
0100
0001
,
0220
0000
0000
0330
0000
0000
1010
0000
0110
0000
1010
0000
0101
0000
0011
0000
1001
0000
0110
0000
1010
0000
1001
0000
,
0101
0011
1001
0101
0110
1010
0101
0011
1001
0101
1010
0110
,
1010
0101
1100
0011
1100
1001
0101
0011
1001
1100
0011
0101
,
1010
0110
0101
1001
1100
1010
0110
1001
0110
1001
0110
0101
,
0011
1001
1100
0011
1001
1100
1010
0101
0011
1010
1001
1100
,
1010
0101
0110
1001
0011
0110
1010
0101
1100
0011
1100
0110
,
1010
0101
0110
1001
1100
0101
0011
1001
1010
0110
0101
1010
,
1001
1100
1010
0101
1010
0101
1100
0001
0010
1001
0100
0010
,
0101
1000
0100
1000
0001
0001
0100
0010
0010
1000
0100
0100
,
1000
0001
0001
0100
0010
0010
1000
0100
0100
1000
0010
0010
,
0100
0001
0001
0010
0001
0001
0100
0010
0010
0100
0001
0001
,
0010
0100
0100
1000
0010
0010
0100
0010
0010
1000
0100
0100
,
1000
0010
0010
0100
1000
1000
0100
0001
0001
0010
0100
0100
,
0010
0001
0001
0010
1000
1000
0010
0001
0001
0100
0010
0010
,
0100
0001
0001
0010
1000
1000
0010
0001
0001
0100
1000
1000
,
0100
0010
0010
0100
0001
0001
0100
0010
0010
0100
0001
0001
,
0010
0100
0100
0010
1000
1000
0010
0001
0001
0010
1000
1000
,
0010
0001
0001
0010
0100
0100
0010
0001
0001
1000
0100
0100
,
1000
0010
0010
0100
0001
0001
1000
0001
0001
0100
0010
0010
,
1000
0100
0100
1000
0010
0010
0100
1000
1000
0100
0010
0010
,
0100
0001
0001
0010
1000
1000
0010
0001
0001
0010
0100
0100
,
0010
0001
0001
0100
0010
0010
1000
0010
0010
0100
0001
0001
,
0010
1000
1000
0010
0001
0001
0100
0010
0010
1000
0001
0001
,
0100
0010
0010
1000
0001
0001
0100
0010
0010
0100
0001
0001
,
2020
0000
0000
3030
0000
0000
1100
0000
0101
0000
1010
0000
0101
0000
1001
0000
1100
0000
0110
0000
1001
0000
0101
0000
,
0011
0110
1001
1100
1000
1000
1000
1000
1000
1000
1000
0001
,
0010
0100
1000
0101
1010
0101
1001
1100
0110
1010
0101
0011
,
1001
1010
0110
0001
0010
0100
1000
0001
0010
1000
0100
0010
,
2002
0000
0000
0000
0000
0000
0000
0000
0003
3000
0000
0000
0101
0000
0000
0000
1010
0000
0000
0000
1001
0000
0000
0000
1100
0000
0000
0000
0101
0000
0000
0000
0011
0000
0000
0000
1001
0000
0000
0000
1100
0000
0000
0000
0110
0000
0000
0000
,
1001
1010
0110
0101
0001
0001
0001
0001
0001
0001
0001
1000
,
0100
0010
0001
1010
1100
0101
0011
1001
0110
1010
0101
0011
,
1001
1100
0110
1000
0100
0010
0001
1000
0100
0001
0010
0100
,
1000
0000
0000
0000
0001
0000
0000
0000
0010
0000
0000
0000
0100
0000
0010
0000
0001
0010
2000
0000
0000
3000
0000
0000
0010
0000
0001
0000
1000
0010
0200
0000
0000
0000
0300
0000
1000
0000
0010
0000
1000
0001
0020
0000
0000
0000
0030
0000
,
1001
0000
0000
0000
0101
0000
0000
0000
0110
0000
0000
0000
1001
0000
0000
0000
1100
0000
0000
0000
1010
0000
0000
0000
0111
0000
1000
0000
0001
0100
0020
0000
0000
0000
0030
0000
0100
0000
0001
0000
1000
0100
0002
0000
0000
0000
0003
0000
,
0010
0000
1000
0000
0010
0001
0200
0000
0000
0000
0300
0000
1001
0000
0000
0000
0110
0000
0000
0000
1100
0000
0000
0000
0011
0000
0000
0000
1010
0000
0000
0000
0101
0000
0000
0000
0111
0000
0000
0000
1000
0000
0000
0000
0100
0000
1000
0000
,
0020
0000
0130
0000
0010
0000
0100
0000
0001
0000
1000
0001
0200
0000
0310
0000
0100
0000
0001
0000
0100
0000
1000
0100
,
0020
0000
0130
0000
0010
0000
1001
0000
0110
0000
1100
0000
0011
0000
0101
0000
0110
0000
1101
0000
0010
0000
1000
0001
,
0200
0000
0301
0000
0100
0000
0010
0000
0100
0000
0001
0010
0200
0000
0310
0000
0001
0000
0100
0000
0010
0000
1000
0100
,
0002
0000
0103
0000
0010
0000
1001
0000
0110
0000
1010
0000
1001
0000
1100
0000
0011
0000
1100
0000
0001
0000
0100
1000
,
0020
0000
1030
0000
0010
0000
0100
0000
0001
0000
1000
0001
0200
0000
0301
0000
0100
0000
0001
0000
0010
0000
0001
0100
,
0020
0000
1030
0000
0100
0000
1001
0000
0110
0000
0101
0000
1100
0000
0110
0000
0011
0000
1100
0000
0010
0000
0001
0100
,
0020
0000
1030
0000
0010
0000
0100
0000
0001
0000
0100
0010
2000
0000
3010
0000
0100
0000
0001
0000
0100
0000
1000
0100
,
0020
0000
0000
0000
0130
0000
0000
0000
0010
0000
0000
0000
1100
0000
0000
0000
0110
0000
0000
0000
1001
0000
0000
0000
0110
0000
0000
0000
1010
0000
0000
0000
0101
0000
0000
0000
0222
0000
0000
0333
0000
0000
2220
0000
0000
3330
0000
0000
,
2202
3303
2220
3330
0222
0333
2202
3303
2022
3033
2220
3330
0222
0333
2202
3303
,
2022
0000
0000
3033
0000
0000
0222
0000
0000
0333
0000
0000
2220
0000
0000
3330
0000
0000
0111
0000
1000
0010
0100
0000
0001
0000
0010
0001
0100
0000
0010
0000
0100
0000
0001
0000
1110
0000
0000
0000
0000
0000
0111
0000
0000
0000
0000
0000
,
1110
0001
0100
1011
0000
0000
0111
0000
0000
1101
0000
0000
0111
1000
0010
1101
0010
1000
0111
0000
0000
1110
0000
0000
,
1011
0000
0100
0000
0001
0000
1110
0000
0000
0000
0000
0000
1011
0000
0010
1000
0100
0000
0010
0000
0001
0100
0010
0000
1000
0000
0010
0100
0001
0000
1001
0000
0110
0000
0011
0000
1100
0000
0000
0000
0001
0000
0000
0000
0100
0000
1000
0000
,
0020
0000
0130
0000
0010
0000
0100
0000
0001
0000
1000
0001
0200
0000
0310
0000
0100
0000
0001
0000
0100
0000
1000
0100
,
0020
0000
0130
0000
0010
0000
1001
0000
0110
0000
1100
0000
0011
0000
0101
0000
0110
0000
1100
0000
0010
0000
1000
0001
,
0200
0000
0301
0000
0100
0000
0010
0000
0100
0000
0001
0010
0200
0000
0310
0000
0001
0000
0100
0000
0010
0000
1000
0100
,
0002
0000
0103
0000
0010
0000
1001
0000
0110
0000
1010
0000
1001
0000
1100
0000
0011
0000
1100
0000
0001
0000
0100
1000
,
0020
0000
1030
0000
0010
0000
0100
0000
0001
0000
1000
0001
0200
0000
0301
0000
0100
0000
0001
0000
0010
0000
0001
0100
,
0020
0000
1030
0000
0100
0000
1001
0000
0110
0000
0101
0000
1100
0000
0110
0000
0011
0000
1101
0000
0010
0000
0001
0100
,
0020
0000
1030
0000
0010
0000
0100
0000
0001
0000
0100
0010
2000
0000
3010
0000
0100
0000
0001
0000
1000
0001
1000
0100
,
0020
0000
0130
0000
0010
0000
1100
0000
0110
0000
1001
0000
0110
0000
1010
0000
0101
0000
2220
3330
0001
0000
0100
0000
,
0010
1000
0100
1001
0100
0010
0001
1000
0100
0010
1000
0010
,
0100
0000
0001
0000
0010
0000
1100
0000
0010
0000
0001
0000
0100
0000
0010
0000
1000
0000
2022
3033
0100
0000
0001
0000
,
0100
1000
0100
0011
0100
0010
1000
0010
0100
0001
0100
1000
,
0100
0000
0010
0000
1000
0000
0011
0000
0100
0000
0001
0000
0100
0000
0010
0000
0001
0000
0222
0333
1000
0000
0100
0000
,
0001
0100
0010
1001
0010
1000
0010
0001
0100
0010
0001
0010
,
1000
0000
0100
0000
0001
0000
0110
0000
1000
0000
0010
0000
0100
0000
1000
0000
0100
0000
2220
3330
1000
0000
0010
0000
,
0100
1000
0100
0011
1000
0010
0100
0001
0010
0100
0010
0001
,
0100
0000
0010
0000
0001
0000
1010
0000
0100
0000
0001
0000
0100
0000
0010
0000
0001
0000
2022
3033
0100
0000
0001
0000
,
1000
0100
1000
0011
0100
0001
0010
0001
1000
0100
1000
0010
,
0100
0000
0010
0000
1000
0000
0101
0000
0010
0000
0001
0000
1000
0000
0100
0000
0010
0000
2202
3303
0010
0000
0100
0000
,
1000
0001
0010
1100
0010
0001
0100
0010
0001
0010
1000
0010
,
0100
0000
0001
0000
0100
0000
0011
0000
1000
0000
0100
0000
1000
0000
0010
0000
0100
0000
0222
0333
1000
0000
0010
0000
,
0100
0001
0100
1001
0010
0001
0100
0001
1000
0100
1000
0010
,
0100
0000
0010
0000
1000
0000
0011
0000
0100
0000
0001
0000
0010
0000
0001
0000
0100
0000
2220
3330
0001
0000
0010
0000
,
1100
0010
0100
0001
0100
0010
1001
0010
0100
0001
0010
0100
,
1010
0001
0100
0010
0001
0010
0101
0010
0001
1010
0101
1010
,
1100
0011
0110
1001
0101
0110
1100
0011
0110
1010
0101
0011
,
1100
1001
0110
0101
0000
0000
1000
0010
0010
0100
0001
0001
,
0010
0100
0100
1000
0010
0010
0100
1000
1000
0100
0010
0010
,
0100
0001
0001
0010
0001
0001
0100
0010
0010
1000
0100
0100
,
1000
0010
0010
0100
1000
1000
0100
0010
0010
0100
1000
1000
,
0100
0001
0100
2000
0000
3000
0010
0100
0100
0010
1000
1000
,
0010
0001
0001
0100
0010
0010
0100
0010
0010
0100
0001
0001
,
0010
0100
0100
1000
0010
0010
0100
0001
0001
1000
0100
0100
,
1000
0010
0010
0100
1000
1000
0100
0010
0010
0100
0001
0001
,
0010
0100
0001
2000
0000
3000
1010
0011
0110
1100
0011
1001
,
0110
1010
0101
0011
1100
1001
0110
0010
0010
0010
0010
0010
,
0010
0010
0100
1000
0100
0010
1001
0011
1100
0101
1010
1100
,
0110
1001
1100
0011
0110
1100
1001
0100
0010
0001
1000
0100
,
0001
0010
0100
2020
0000
3030
0011
0101
0110
1010
1001
1010
,
0011
1100
1010
0110
0011
1010
1100
0100
0100
0100
0100
0100
,
0001
0010
0100
1000
0100
0010
0101
1010
0101
0110
1100
0011
,
0101
0000
1001
0000
0110
0000
1001
0000
1010
0000
1100
0000
0101
0000
0010
0001
0100
0000
1000
0000
0001
0000
0010
0000
,
1000
0100
0010
0001
1000
0100
1000
0001
0001
0100
0010
0010
,
1000
0100
0100
1000
0001
0001
0100
0010
0010
1000
0100
0100
,
1000
0010
0010
0100
0001
0001
0010
0001
0001
0100
0010
0010
,
0100
0001
0001
0010
0100
0100
1000
0010
0010
0100
0010
0010
,
1000
0100
0100
1000
0010
0010
0100
1000
1000
0100
0001
0001
,
0010
0100
0100
0010
0001
0001
0010
1000
1000
0010
0001
0001
,
0100
0010
0010
0100
0001
0001
0010
1000
1000
0010
0001
0001
,
0100
1000
1000
0100
0010
0010
0100
0001
0001
0100
0010
0010
,
0100
0001
0001
0010
0100
0100
0010
1000
1000
0010
0001
0001
,
0010
1000
1000
0010
0001
0001
0010
0100
0100
0010
0001
0001
,
1000
0100
0100
1000
0010
0010
0100
0001
0001
1000
0001
0001
,
0100
0010
0010
1000
0100
0100
1000
0010
0010
0100
1000
1000
,
0100
0010
0010
0100
0001
0001
0010
1000
1000
0010
0001
0001
,
0010
0100
0100
0010
0001
0001
0100
0010
0010
1000
0010
0010
,
0100
0001
0001
0010
1000
1000
0010
0001
0001
0100
0010
0010
,
1000
0000
0001
0000
0001
0000
1000
0000
0010
0000
0010
0000
0100
0000
0001
1000
0010
0000
0100
0000
0010
1000
0100
0000
,
0010
0000
0100
0010
0001
0000
1000
0000
0010
0000
0100
0000
2000
0000
0100
0000
0010
0000
0100
0000
0001
0000
0010
0000
,
0001
0000
0020
3000
0130
0000
0020
0000
1000
0030
0001
0000
0200
0000
0010
0300
1000
0000
0002
0000
0010
0003
0100
0000
,
2000
0000
0010
3000
0001
0000
0200
0000
0010
0300
0100
0000
0020
0000
1000
0000
0001
0000
0100
0000
1000
0000
0100
0000
,
0001
0000
1000
0030
0100
0000
0020
0000
0001
0030
1000
0000
0200
0000
0010
0000
0001
0000
1000
0000
0010
0000
1000
0000
,
0001
0000
0010
0000
0001
0000
1000
0000
0010
0300
0001
0000
0020
0000
0100
0000
1000
0000
0001
0000
0100
0000
0001
0000
,
1000
0000
0100
0030
0001
0000
2000
0000
0100
3000
0010
0000
0002
0000
0100
0003
1000
0000
0200
0000
0010
0300
0001
0000
,
0020
0000
0100
0030
0001
0000
2000
0000
0100
3000
0010
0000
0002
0000
1000
0000
0010
0000
0100
0000
1000
0000
0100
0000
,
0010
0000
1000
0003
0010
0000
0200
0000
0001
0300
1000
0000
0020
0000
1000
0000
0100
0000
0001
0000
0100
0000
1000
0000
,
0001
0000
0100
0000
1000
0000
0001
0000
0100
0030
0001
0000
2000
0000
0001
0000
0100
0000
0010
0000
0001
0000
0100
0000
,
0010
0000
0001
3000
0010
0000
0200
0000
1000
0300
0001
0000
0020
0000
0100
0030
1000
0000
0002
0000
0010
0003
1000
0000
,
0200
0000
0010
0300
0001
0000
0020
0000
1000
0030
0100
0000
2000
0000
0001
0000
0100
0000
0010
0000
0001
0000
0010
0000
,
0100
0000
0001
3000
0100
0000
0002
0000
1000
0003
0010
0000
0200
0000
0010
0000
1000
0000
0001
0000
0010
0000
0001
0000
,
1000
0000
0010
0000
1000
0000
0001
0000
0010
0300
1000
0000
0002
0000
1000
0000
0010
0000
0100
0000
1000
0000
0100
0000
,
0010
0000
0100
0003
0010
0000
2000
0000
0001
3000
0100
0000
0002
0000
0010
0003
1000
0000
0200
0000
1000
0300
0001
0000
,
0020
0000
0001
0030
0100
0000
2000
0000
0010
3000
0001
0000
0200
0000
0010
0000
0001
0000
1000
0000
0010
0000
1000
0000
,
0001
0000
0000
0000
0010
0000
0300
0000
0001
0000
0000
0000
0020
0000
0000
0000
0100
0000
0000
0000
1000
0030
0000
0000
0001
0000
0000
0010
0000
0000
0200
0000
0000
0000
0000
0000
0000
0000
0000
0000
0000
0000
0000
0000
0000
0000
0000
0000
,
0000
0000
0000
0000
0000
0000
0000
0000
0000
0300
0000
0000
1100
0000
0101
0000
1010
0000
0101
0000
1001
0000
1100
0000
,
0110
1001
0101
0011
1010
0110
1100
1000
1000
1000
1000
1000
,
0001
0010
0100
1000
0100
0010
1001
1010
0101
1001
1100
0110
,
1010
0101
0011
1001
1010
0110
1001
0100
0010
0001
1000
0100
,
0001
0010
0100
1000
0001
0010
1100
0110
1010
1100
0101
0110
,
1001
0110
1010
0110
1001
0101
1010
0010
0010
0010
0010
0010
,
0001
0010
0100
1000
0100
0010
1001
0110
0011
1100
0110
0011
,
1100
0101
0110
1100
0110
1010
0101
0010
0100
1000
0001
0010
,
1000
0100
0010
0001
1000
0100
0011
1100
1001
0110
1001
0011
,
1100
0110
0011
0110
1001
0011
1100
1000
1000
1000
1000
1000
,
0001
0010
0100
1000
0100
0010
0101
1010
0101
0110
1010
0110
,
0101
1001
0101
0110
1100
0101
1001
0010
0100
1000
0001
0010
,
1000
0000
0100
0000
0010
0000
0001
0000
1000
0000
0100
0000
2020
3030
0101
0000
0110
0000
1010
0000
0101
0000
0011
0000
,
2200
3300
0110
0000
0101
0000
1100
0000
1010
0000
0011
0000
0220
0330
1001
0000
0101
0000
1100
0000
0011
0000
1001
0000
,
0202
0303
0110
0000
0011
0000
1100
0000
0110
0000
0101
0000
2002
3003
0110
0000
1010
0000
0110
0000
1001
0000
1010
0000
,
0101
0000
0011
0000
1010
0000
0110
0000
0011
0000
1001
0000
0220
0330
1100
0000
1010
0000
0011
0000
0101
0000
1001
0000
,
0011
0000
0110
0000
0101
0000
1010
0000
0101
0000
0011
0000
2200
3300
0110
0000
0011
0000
1100
0000
0011
0000
1010
0000
,
0220
0330
1001
0000
0101
0000
0011
0000
1100
0000
1001
0000
0220
0330
1001
0000
0101
0000
0110
0000
1010
0000
0110
0000
,
2200
3300
0011
0000
1001
0000
0101
0000
1010
0000
0110
0000
0022
0033
0110
0000
1010
0000
1001
0000
1100
0000
0110
0000
,
1010
0000
0101
0000
0011
0000
1100
0000
0110
0000
1010
0000
0022
0033
1001
0000
1100
0000
0011
0000
1100
0000
1010
0000
,
0011
0000
1010
0000
0101
0000
0011
0000
1001
0000
1100
0000
0220
0330
0101
0000
0011
0000
1001
0000
1100
0000
1010
0000
,
0022
0033
1001
0000
1100
0000
0110
0000
1001
0000
1010
0000
2200
3300
0101
0000
0011
0000
1001
0000
1100
0000
1010
0000
,
0202
0303
0011
0000
1001
0000
0110
0000
1010
0000
0101
0000
0022
0033
1001
0000
1100
0000
1010
0000
0101
0000
0011
0000
,
1100
0000
1010
0000
0101
0000
0011
0000
1001
0000
1100
0000
0022
0033
0110
0000
0101
0000
0011
0000
1001
0000
1100
0000
,
0110
0000
1001
0000
1100
0000
0110
0000
1010
0000
0101
0000
2020
3030
1001
0000
1100
0000
0011
0000
0110
0000
0101
0000
,
0022
0033
1001
0000
1100
0000
0110
0000
0101
0000
0011
0000
2020
3030
1100
0000
1010
0000
0110
0000
1001
0000
0101
0000
,
0022
0033
1001
0000
1100
0000
1010
0000
0110
0000
1001
0000
2200
3300
0011
0000
1100
0000
1010
0000
0101
0000
0011
0000
,
1010
0000
1100
0000
0110
0000
1001
0000
1010
0000
0110
0000
0101
1000
0010
0100
0001
0010
0100
0010
0001
1000
0100
1000
,
0010
0100
0010
1000
0010
0100
0001
0010
0001
0100
0010
1000
0222
0000
0000
0000
0000
0000
0000
0000
0000
0000
0000
0000
,
0000
0000
0000
0000
,
0333
0000
0000
0000
;

//---------------dance-single - STANDARD----------------
#NOTES:
     dance-single:
     STANDARD:
     Easy:
     9:
     1.000,0.722,0.305,0.580,1.000:



0000
0000
0000
1000
0010
0010
0100
0001
0001
0010
0100
0100
,
1000
0010
0010
0100
1000
1000
0100
0010
0010
0100
0001
0001
,
0010
0001
0001
0100
0010
0010
1000
0100
0100
1000
0010
0010
,
0100
1000
1000
0100
0010
0010
0100
1000
1000
0100
0001
0100
,
2000
0000
3000
0010
0100
0100
0010
1000
1000
0010
0001
0001
,
0100
0010
0010
0100
0010
0010
0100
0001
0001
0010
0100
0100
,
1000
0010
0010
0100
0001
0001
1000
0100
0100
1000
0010
0010
,
0100
1000
1000
0100
0010
0010
0100
0001
0001
0010
0100
0001
,
2000
0000
3000
0100
0001
0001
1000
0010
0010
0100
0001
0001
,
0010
0100
0100
1000
0010
0010
0100
0001
0001
0010
0100
0100
,
0010
1000
1000
0010
0001
0001
0010
1000
1000
0010
0001
0001
,
0100
0010
0010
0100
0001
0001
0100
1000
1000
0100
0010
0001
,
0200
0000
0300
1000
0001
0001
0010
0001
0001
0100
0010
0010
,
0100
0001
0001
0010
1000
1000
0010
0001
0001
0100
0010
0010
,
1000
0100
0100
1000
0010
0010
0100
0001
0001
0010
1000
1000
,
0010
0100
0100
0010
0001
0001
0100
0010
0010
1000
0100
0001
,
0220
0000
0000
0330
0000
0000
0010
0000
0010
0000
0010
0000
0010
0000
0010
0000
0010
0000
0010
0000
0010
0000
0010
0000
,
0010
0010
0010
0010
0010
0010
0010
0010
0010
0001
0010
0100
,
1000
0100
0010
0001
0001
0001
0001
0001
0001
0001
0001
0001
,
0001
0001
0001
0001
0001
1000
0100
0010
0001
0010
0100
1000
,
0001
0010
0100
1000
1000
1000
1000
1000
1000
1000
1000
1000
,
1000
1000
1000
1000
1000
1000
1000
1000
1000
1000
0010
0100
,
1000
0100
0010
0001
0001
0001
0001
0001
0001
0001
0001
0001
,
0001
0001
0001
0001
0001
1000
0100
0010
0001
0010
0100
1000
,
0001
0010
0100
1000
0001
0001
0100
0010
0010
1000
0100
0100
,
1000
0001
0001
0100
0010
0010
1000
0100
0100
1000
0010
0010
,
0100
0001
0001
0010
0001
0001
0100
0010
0010
0100
0001
0001
,
0010
0100
0100
1000
0010
0010
0100
0010
0010
1000
0100
0100
,
1000
0010
0010
0100
1000
1000
0100
0001
0001
0010
0100
0100
,
0010
0001
0001
0010
1000
1000
0010
0001
0001
0100
0010
0010
,
0100
0001
0001
0010
1000
1000
0010
0001
0001
0100
1000
1000
,
0100
0010
0010
0100
0001
0001
0100
0010
0010
0100
0001
0001
,
0010
0100
0100
0010
1000
1000
0010
0001
0001
0010
1000
1000
,
0010
0001
0001
0010
0100
0100
0010
0001
0001
1000
0100
0100
,
1000
0010
0010
0100
0001
0001
1000
0001
0001
0100
0010
0010
,
1000
0100
0100
1000
0010
0010
0100
1000
1000
0100
0010
0010
,
0100
0001
0001
0010
1000
1000
0010
0001
0001
0010
0100
0100
,
0010
0001
0001
0100
0010
0010
1000
0010
0010
0100
0001
0001
,
0010
1000
1000
0010
0001
0001
0100
0010
0010
1000
0001
0001
,
0100
0010
0010
1000
0001
0001
0100
0010
0010
0100
0001
0001
,
2020
0000
0000
3030
0000
0000
1000
0000
1000
0000
1000
0000
1000
0000
1000
0000
1000
0000
1000
0000
1000
0000
1000
0000
,
1000
1000
1000
1000
1000
1000
1000
1000
1000
1000
1000
0010
,
0100
1000
0100
0010
0010
0010
0010
0010
0010
0010
0010
0010
,
0010
0010
0010
0001
0010
0100
1000
0001
0010
1000
0100
0010
,
2002
0000
0000
0000
0000
0000
0000
0000
0003
3000
0000
0000
0001
0000
0000
0000
0001
0000
0000
0000
0001
0000
0000
0000
0001
0000
0000
0000
0001
0000
0000
0000
0001
0000
0000
0000
0001
0000
0000
0000
0001
0000
0000
0000
0001
0000
0000
0000
,
0001
0001
0001
0001
0001
0001
0001
0001
0001
0001
0001
1000
,
0100
0010
0001
0100
0100
0100
0100
0100
0100
0100
0100
0100
,
0100
0100
0100
1000
0100
0010
0001
1000
0100
0001
0010
0100
,
1000
0000
0000
0000
0001
0000
0000
0000
0010
0000
0000
0000
0100
0000
0010
0000
0001
0010
2000
0000
0000
0000
3000
0000
0010
0000
0001
0000
1000
0010
0200
0000
0000
0000
0300
0000
1000
0000
0010
0000
1000
0001
0020
0000
0000
0000
0030
0000
,
0100
0000
0000
0000
0100
0000
0000
0000
0100
0000
0000
0000
0100
0000
0000
0000
0100
0000
0000
0000
0100
0000
0000
0000
0100
0000
1000
0000
0001
0100
0020
0000
0000
0000
0030
0000
0100
0000
0001
0000
1000
0100
0002
0000
0000
0000
0003
0000
,
0010
0000
1000
0000
0010
0001
0200
0000
0000
0000
0300
0000
0001
0000
0000
0000
0001
0000
0000
0000
0001
0000
0000
0000
0001
0000
0000
0000
0001
0000
0000
0000
0001
0000
0000
0000
0010
0000
0000
0000
1000
0000
0000
0000
0100
0000
1000
0000
,
0020
0000
0030
0000
0000
0000
0100
0000
0001
0000
1000
0001
0200
0000
0300
0000
0000
0000
0001
0000
0100
0000
1000
0100
,
0020
0000
0030
0000
0000
0000
0100
0000
0100
0000
0100
0000
0100
0000
0100
0000
0100
0000
0010
0000
0100
0000
1000
0001
,
0200
0000
0300
0000
0000
0000
0010
0000
0100
0000
0001
0010
0200
0000
0300
0000
0000
0000
0100
0000
0010
0000
1000
0100
,
0002
0000
0003
0000
0000
0000
0100
0000
0100
0000
0100
0000
0100
0000
0100
0000
0100
0000
0100
0000
0001
0000
0100
1000
,
0020
0000
0030
0000
0000
0000
0100
0000
0001
0000
1000
0001
0200
0000
0300
0000
0000
0000
0001
0000
0010
0000
0001
0100
,
0020
0000
0030
0000
0000
0000
1000
0000
1000
0000
1000
0000
1000
0000
1000
0000
1000
0000
1000
0000
0010
0000
0001
0100
,
0020
0000
0030
0000
0000
0000
0100
0000
0001
0000
0100
0010
2000
0000
3000
0000
0000
0000
0001
0000
0100
0000
1000
0100
,
0020
0000
0000
0000
0030
0000
0000
0000
0000
0000
0000
0000
0100
0000
0000
0000
0100
0000
0000
0000
0100
0000
0000
0000
0100
0000
0000
0000
0100
0000
0000
0000
0100
0000
0000
0000
0022
0000
0000
0033
0000
0000
0220
0000
0000
0330
0000
0000
,
2200
3300
2020
3030
0202
0303
2002
3003
2020
3030
2200
3300
0022
0033
2002
3003
,
2020
0000
0000
3030
0000
0000
0220
0000
0000
0330
0000
0000
2020
0000
0000
3030
0000
0000
0110
0000
1000
0010
0100
0000
0001
0000
0010
0001
0100
0000
0010
0000
0100
0000
0001
0000
1100
0000
0000
0000
0000
0000
0011
0000
0000
0000
0000
0000
,
0110
0001
0100
1010
0000
0000
0011
0000
0000
1100
0000
0000
0110
1000
0010
1100
0010
1000
0101
0000
0000
0110
0000
0000
,
1010
0000
0100
0000
0001
0000
0110
0000
0000
0000
0000
0000
1100
0000
0010
1000
0100
0000
0010
0000
0001
0100
0010
0000
1000
0000
0010
0100
0001
0000
1001
0000
0110
0000
0011
0000
1100
0000
0000
0000
0001
0000
0000
0000
0100
0000
1000
0000
,
0020
0000
0030
0000
0000
0000
0100
0000
0001
0000
1000
0001
0200
0000
0300
0000
0000
0000
0001
0000
0100
0000
1000
0100
,
0020
0000
0030
0000
0000
0000
0010
0000
0010
0000
0010
0000
0010
0000
0010
0000
0010
0000
0010
0000
0100
0000
1000
0001
,
0200
0000
0300
0000
0000
0000
0010
0000
0100
0000
0001
0010
0200
0000
0300
0000
0000
0000
0100
0000
0010
0000
1000
0100
,
0002
0000
0003
0000
0000
0000
0100
0000
0100
0000
0100
0000
0100
0000
0100
0000
0100
0000
0100
0000
0001
0000
0100
1000
,
0020
0000
0030
0000
0000
0000
0100
0000
0001
0000
1000
0001
0200
0000
0300
0000
0000
0000
0001
0000
0010
0000
0001
0100
,
0020
0000
0030
0000
0000
0000
0001
0000
0001
0000
0001
0000
0001
0000
0001
0000
0001
0000
0001
0000
0010
0000
0001
0100
,
0020
0000
0030
0000
0000
0000
0100
0000
0001
0000
0100
0010
2000
0000
3000
0000
0000
0000
0001
0000
0010
0000
1000
0100
,
0020
0000
0030
0000
0000
0000
1000
0000
1000
0000
1000
0000
1000
0000
1000
0000
1000
0000
0220
0330
0001
0000
0100
0000
,
0010
1000
0100
1001
0100
0010
0001
1000
0100
0010
1000
0010
,
0100
0000
0001
0000
0010
0000
1100
0000
0010
0000
0001
0000
0100
0000
0010
0000
1000
0000
2022
3033
0100
0000
0001
0000
,
0100
1000
0100
0011
0100
0010
1000
0010
0100
0001
0100
1000
,
0100
0000
0010
0000
1000
0000
0011
0000
0100
0000
0001
0000
0100
0000
0010
0000
0001
0000
0222
0333
1000
0000
0100
0000
,
0001
0100
0010
1001
0010
1000
0010
0001
0100
0010
0001
0010
,
1000
0000
0100
0000
0001
0000
0110
0000
1000
0000
0010
0000
0100
0000
1000
0000
0100
0000
2220
3330
1000
0000
0010
0000
,
0100
1000
0100
0011
1000
0010
0100
0001
0010
0100
0010
0001
,
0100
0000
0010
0000
0001
0000
1010
0000
0100
0000
0001
0000
0100
0000
0010
0000
0001
0000
2022
3033
0100
0000
0001
0000
,
1000
0100
1000
0011
0100
0001
0010
0001
1000
0100
1000
0010
,
0100
0000
0010
0000
1000
0000
0101
0000
0010
0000
0001
0000
1000
0000
0100
0000
0010
0000
2202
3303
0010
0000
0100
0000
,
1000
0001
0010
1100
0010
0001
0100
0010
0001
0010
1000
0010
,
0100
0000
0001
0000
0100
0000
0011
0000
1000
0000
0100
0000
1000
0000
0010
0000
0100
0000
0222
0333
1000
0000
0010
0000
,
0100
0001
0100
1001
0010
0001
0100
0001
1000
0100
1000
0010
,
0100
0000
0010
0000
1000
0000
0011
0000
0100
0000
0001
0000
0010
0000
0001
0000
0100
0000
2220
3330
0001
0000
0010
0000
,
1100
0010
0100
0001
0100
0010
1001
0010
0100
0001
0010
0100
,
1010
0001
0100
0010
0001
0010
0101
0010
0001
1000
0100
1000
,
0001
0010
0001
1000
0010
1000
0001
0010
0001
0100
0010
0100
,
0001
1000
0001
0110
0000
0000
1000
0010
0010
0100
0001
0001
,
0010
0100
0100
1000
0010
0010
0100
1000
1000
0100
0010
0010
,
0100
0001
0001
0010
0001
0001
0100
0010
0010
1000
0100
0100
,
1000
0010
0010
0100
1000
1000
0100
0010
0010
0100
1000
1000
,
0100
0001
0100
2000
0000
3000
0010
0100
0100
0010
1000
1000
,
0010
0001
0001
0100
0010
0010
0100
0010
0010
0100
0001
0001
,
0010
0100
0100
1000
0010
0010
0100
0001
0001
1000
0100
0100
,
1000
0010
0010
0100
1000
1000
0100
0010
0010
0100
0001
0001
,
0010
0100
0001
2000
0000
3000
0010
0010
0010
0010
0010
0010
,
0010
0010
0010
0010
0010
0010
0010
0010
0010
0010
0010
0010
,
0010
0010
0100
1000
0100
0010
0100
0100
0100
0100
0100
0100
,
0100
0100
0100
0100
0100
0100
1000
0100
0010
0001
1000
0100
,
0001
0010
0100
2020
0000
3030
0100
0100
0100
0100
0100
0100
,
0100
0100
0100
0100
0100
0100
0100
0100
0100
0100
0100
0100
,
0001
0010
0100
1000
0100
0010
0001
0001
0001
0001
0001
0001
,
0001
0000
0001
0000
0001
0000
0001
0000
0001
0000
0001
0000
0001
0000
0010
0001
0100
0000
1000
0000
0001
0000
0010
0000
,
1000
0100
0010
0001
1000
0100
1000
0001
0001
0100
0010
0010
,
1000
0100
0100
1000
0001
0001
0100
0010
0010
1000
0100
0100
,
1000
0010
0010
0100
0001
0001
0010
0001
0001
0100
0010
0010
,
0100
0001
0001
0010
0100
0100
1000
0010
0010
0100
0010
0010
,
1000
0100
0100
1000
0010
0010
0100
1000
1000
0100
0001
0001
,
0010
0100
0100
0010
0001
0001
0010
1000
1000
0010
0001
0001
,
0100
0010
0010
0100
0001
0001
0010
1000
1000
0010
0001
0001
,
0100
1000
1000
0100
0010
0010
0100
0001
0001
0100
0010
0010
,
0100
0001
0001
0010
0100
0100
0010
1000
1000
0010
0001
0001
,
0010
1000
1000
0010
0001
0001
0010
0100
0100
0010
0001
0001
,
1000
0100
0100
1000
0010
0010
0100
0001
0001
1000
0001
0001
,
0100
0010
0010
1000
0100
0100
1000
0010
0010
0100
1000
1000
,
0100
0010
0010
0100
0001
0001
0010
1000
1000
0010
0001
0001
,
0010
0100
0100
0010
0001
0001
0100
0010
0010
1000
0010
0010
,
0100
0001
0001
0010
1000
1000
0010
0001
0001
0100
0010
0010
,
1000
0000
0001
0000
0001
0000
1000
0000
0010
0000
0010
0000
0100
0000
0001
1000
0010
0000
0100
0000
0010
1000
0100
0000
,
0010
0000
0100
0010
0001
0000
1000
0000
0010
0000
0100
0000
2000
0000
0000
0000
0000
0000
0000
0000
0000
0000
0000
0000
,
0000
3000
0020
0030
0200
0300
0002
0003
,
2000
3000
0200
0300
0020
0000
0000
0000
,
0000
0030
0020
0030
0200
0000
0000
0000
,
0000
0000
0000
0300
0020
0000
0000
0000
,
0000
0030
2000
3000
0002
0003
0200
0300
,
0020
0030
2000
3000
0002
0000
0000
0000
,
0000
0003
0200
0300
0020
0000
0000
0000
,
0000
0000
0000
0030
2000
0000
0000
0000
,
0000
3000
0200
0300
0020
0030
0002
0003
,
0200
0300
0020
0030
2000
0000
0000
0000
,
0000
3000
0002
0003
0200
0000
0000
0000
,
0000
0000
0000
0300
0002
0000
0000
0000
,
0000
0003
2000
3000
0002
0003
0200
0300
,
0020
0030
2000
3000
0200
0000
0000
0000
,
0000
0000
0300
0000
0020
0000
0000
0030
0001
0010
0200
0000
0000
0000
0000
0000
,
0000
0000
0000
0000
0000
0000
0000
0000
0000
0300
0000
0000
1000
0000
1000
0000
1000
0000
1000
0000
1000
0000
1000
0000
,
1000
1000
1000
1000
1000
1000
1000
1000
1000
1000
1000
1000
,
0001
0010
0100
1000
0100
0010
0001
0001
0001
0001
0001
0001
,
0001
0001
0001
0001
0001
0001
1000
0100
0010
0001
1000
0100
,
0001
0010
0100
1000
0010
0100
0010
0010
0010
0010
0010
0010
,
0010
0010
0010
0010
0010
0010
0010
0010
0010
0010
0010
0010
,
0001
0010
0100
1000
0100
0010
0100
0100
0100
0100
0100
0100
,
0100
0100
0100
0100
0100
0100
0001
0010
0100
1000
0001
0010
,
1000
0000
0100
0000
0010
0000
0001
0000
1000
0000
0100
0000
1020
0000
1000
0000
1000
0000
1000
0000
1000
0030
1000
0000
,
1002
0000
1000
0000
1000
0000
1000
0000
1000
0003
1000
0000
1200
0000
1000
0000
1000
0000
1000
0000
1000
0300
1000
0000
,
0002
0000
0010
0000
0100
0000
1000
0000
0100
0003
0010
0000
0201
0000
0001
0000
0001
0000
0001
0000
0001
0000
0001
0000
,
0001
0000
0001
0000
0001
0000
0001
0000
0001
0300
0001
0000
0002
0000
0010
0000
0100
0000
1000
0000
0100
0000
0010
0000
,
1000
0000
0100
0000
0010
0000
0100
0000
1000
0003
0100
0000
1020
0000
1000
0000
1000
0000
1000
0000
1000
0030
1000
0000
,
1002
0000
1000
0000
1000
0000
1000
0000
1000
0003
1000
0000
1200
0000
1000
0000
1000
0000
1000
0000
1000
0300
1000
0000
,
0002
0000
0010
0000
0100
0000
1000
0000
0100
0003
0010
0000
0201
0000
0001
0000
0001
0000
0001
0000
0001
0000
0001
0000
,
0001
0000
0001
0000
0001
0000
0001
0000
0001
0300
0001
0000
2000
0000
0100
0000
0010
0000
0001
0000
0010
0000
0100
0000
,
0001
0000
0010
0000
0100
0000
0001
0000
0010
3000
0100
0000
0012
0000
0010
0000
0010
0000
0010
0000
0010
0003
0010
0000
,
0210
0000
0010
0000
0010
0000
0010
0000
0010
0300
0010
0000
2010
0000
0010
0000
0010
0000
0010
0000
0010
3000
0010
0000
,
0002
0000
0010
0000
0100
0000
1000
0000
0100
0003
0010
0000
2100
0000
0100
0000
0100
0000
0100
0000
0100
0000
0100
0000
,
0100
0000
0100
0000
0100
0000
0100
0000
0100
3000
0100
0000
0002
0000
0010
0000
0100
0000
1000
0000
0100
0000
0010
0000
,
1000
0000
0100
0000
0010
0000
0100
0000
1000
0003
0100
0000
1020
0000
1000
0000
1000
0000
1000
0000
1000
0030
1000
0000
,
1002
0000
1000
0000
1000
0000
1000
0000
1000
0003
1000
0000
1200
0000
1000
0000
1000
0000
1000
0000
1000
0300
1000
0000
,
0002
0000
0010
0000
0100
0000
1000
0000
0100
0003
0010
0000
0201
0000
0001
0000
0001
0000
0001
0000
0001
0000
0001
0000
,
0001
0000
0001
0000
0001
0000
0001
0000
0001
0300
0001
0000
1020
0000
0100
0000
1000
0000
0001
0000
1000
0000
0100
0000
,
0001
0000
1000
0000
0100
0000
1000
0000
0001
0030
0100
0000
1002
0000
1000
0000
1000
0000
1000
0000
1000
0003
1000
0000
,
1020
0000
1000
0000
1000
0000
1000
0000
1000
0030
1000
0000
1200
0000
1000
0000
1000
0000
1000
0000
1000
0300
1000
0000
,
0002
0000
0010
0000
0100
0000
1000
0000
0100
0003
0010
0000
0201
0000
0001
0000
0001
0000
0001
0000
0001
0000
0001
0000
,
0001
0000
0001
0000
0001
0000
0001
0000
0001
0300
0001
0000
0001
1000
0010
0100
0001
0010
0100
0010
0001
1000
0100
1000
,
0010
0100
0010
1000
0010
0100
0001
0010
0001
0100
0010
1000
0222
0000
0000
0000
0000
0000
0000
0000
0000
0000
0000
0000
,
0000
0000
0000
0000
,
0333
0000
0000
0000
;
